<?xml version="1.0" standalone="no"?>
<!DOCTYPE svg PUBLIC "-//W3C//DTD SVG 1.1//EN" "http://www.w3.org/Graphics/SVG/1.1/DTD/svg11.dtd" >
<svg xmlns="http://www.w3.org/2000/svg" xmlns:xlink="http://www.w3.org/1999/xlink" version="1.1">
<metadata>
Created by FontForge 20201107 at Thu Feb 22 10:01:58 2024
 By Unknown
(c) 2023 Giulia Boggio
</metadata>
<defs>
<font id="FabioXM-Regular" horiz-adv-x="0" >
  <font-face 
    font-family="Fabio XM"
    font-weight="400"
    font-stretch="normal"
    units-per-em="1000"
    panose-1="0 0 0 0 0 0 0 0 0 0"
    ascent="800"
    descent="-200"
    x-height="540"
    cap-height="752"
    bbox="-240 -278 2146 1066"
    underline-thickness="50"
    underline-position="-125"
    unicode-range="U+0020-FB02"
  />
<missing-glyph horiz-adv-x="1010" 
d="M266 -95q-106 60 -166 166t-60 239t60 239t166 166t239 60t239 -60t166 -166t60 -239t-60 -239t-166 -166t-239 -60t-239 60zM563 0v116h-118v-116h118zM560 196v5q0 41 8.5 66.5t31.5 44.5q51 42 74.5 75.5t23.5 78.5q0 47 -27 82t-70 53.5t-91 18.5q-59 0 -103.5 -25.5
t-69 -67.5t-24.5 -89h132q0 28 17.5 48.5t46.5 20.5q24 0 40.5 -12.5t16.5 -34.5q0 -34 -33 -58q-38 -27 -57.5 -56t-26 -61.5t-6.5 -81.5v-7h117z" />
    <glyph glyph-name="Iacute_J_acutecomb" unicode="&#xcd;J&#x301;" horiz-adv-x="838" 
d="M89 752h81v-752h-81v752zM44 872l120 119l53 -52l-120 -121zM345.5 42.5q-63.5 54.5 -63.5 152.5l76 12q0 -69 42 -105.5t117 -36.5q76 0 118.5 43.5t42.5 126.5v517h79v-520q0 -114 -64.5 -179t-175.5 -65q-108 0 -171.5 54.5zM631 872l120 119l53 -52l-120 -121z" />
    <glyph glyph-name="fi" unicode="fi" horiz-adv-x="578" 
d="M116 467h-95v73h95v84q0 70 43.5 105.5t106.5 35.5q34 0 61 -8v-70q-24 8 -46 8q-38 0 -62.5 -22t-24.5 -65v-68h135v-73h-135v-467h-78v467zM421 540h79v-540h-79v540zM407 752h105v-102h-105v102z" />
    <glyph glyph-name="fl" unicode="fl" horiz-adv-x="577" 
d="M116 467h-95v73h95v84q0 70 43.5 105.5t106.5 35.5q34 0 61 -8v-70q-24 8 -46 8q-38 0 -62.5 -22t-24.5 -65v-68h135v-73h-135v-467h-78v467zM421 752h79v-752h-79v752z" />
    <glyph glyph-name="iacute_j_acutecomb" unicode="&#xed;j&#x301;" horiz-adv-x="468" 
d="M77 540h79v-540h-79v540zM31 660l120 119l53 -52l-120 -121zM248 -151q30 0 46.5 19.5t16.5 65.5v606h79v-614q0 -81 -33 -118.5t-91 -37.5q-32 0 -68 9v79q32 -9 50 -9zM265 660l120 119l53 -52l-120 -121z" />
    <glyph glyph-name=".notdef" horiz-adv-x="1010" 
d="M266 -95q-106 60 -166 166t-60 239t60 239t166 166t239 60t239 -60t166 -166t60 -239t-60 -239t-166 -166t-239 -60t-239 60zM563 0v116h-118v-116h118zM560 196v5q0 41 8.5 66.5t31.5 44.5q51 42 74.5 75.5t23.5 78.5q0 47 -27 82t-70 53.5t-91 18.5q-59 0 -103.5 -25.5
t-69 -67.5t-24.5 -89h132q0 28 17.5 48.5t46.5 20.5q24 0 40.5 -12.5t16.5 -34.5q0 -34 -33 -58q-38 -27 -57.5 -56t-26 -61.5t-6.5 -81.5v-7h117z" />
    <glyph glyph-name="space" unicode=" " horiz-adv-x="249" 
 />
    <glyph glyph-name="A" unicode="A" horiz-adv-x="742" 
d="M217 301h311l-155 383zM316 752h114l301 -752h-82l-90 224h-373l-91 -224h-84z" />
    <glyph glyph-name="Aacute" unicode="&#xc1;" horiz-adv-x="742" 
d="M217 301h311l-155 383zM316 752h114l301 -752h-82l-90 224h-373l-91 -224h-84zM286 872l120 119l53 -52l-120 -121z" />
    <glyph glyph-name="Abreve" unicode="&#x102;" horiz-adv-x="742" 
d="M217 301h311l-155 383zM316 752h114l301 -752h-82l-90 224h-373l-91 -224h-84zM269.5 865q-37.5 37 -37.5 99h68q0 -33 18.5 -52.5t50.5 -19.5t51 19.5t19 52.5h69q0 -62 -38 -99t-101 -37q-62 0 -99.5 37z" />
    <glyph glyph-name="uni01CD" unicode="&#x1cd;" horiz-adv-x="742" 
d="M217 301h311l-155 383zM316 752h114l301 -752h-82l-90 224h-373l-91 -224h-84zM340 906l75 58l75 -10l-109 -116l-99 126l35 -30z" />
    <glyph glyph-name="Acircumflex" unicode="&#xc2;" horiz-adv-x="742" 
d="M217 301h311l-155 383zM316 752h114l301 -752h-82l-90 224h-373l-91 -224h-84zM252 851l150 95l98 -126l-75 11l-64 48l-75 -59z" />
    <glyph glyph-name="uni1EAC" unicode="&#x1eac;" horiz-adv-x="742" 
d="M217 301h311l-155 383zM316 752h114l301 -752h-82l-90 224h-373l-91 -224h-84zM333 -170.5q-16 16.5 -16 39.5t16 39t39 16t39 -16t16 -39t-16 -39.5t-39 -16.5t-39 16.5zM252 851l150 95l98 -126l-75 11l-64 48l-75 -59z" />
    <glyph glyph-name="Adieresis" unicode="&#xc4;" horiz-adv-x="742" 
d="M217 301h311l-155 383zM316 752h114l301 -752h-82l-90 224h-373l-91 -224h-84zM423 864q-16 16 -16 39t16 39.5t39 16.5t39 -16.5t16 -39.5t-16 -39t-39 -16t-39 16zM241 942.5q16 16.5 39 16.5t39 -16.5t16 -39.5t-16 -39t-39 -16t-39 16t-16 39t16 39.5z" />
    <glyph glyph-name="Agrave" unicode="&#xc0;" horiz-adv-x="742" 
d="M217 301h311l-155 383zM316 752h114l301 -752h-82l-90 224h-373l-91 -224h-84zM263 939l54 52l119 -119l-53 -54z" />
    <glyph glyph-name="Amacron" unicode="&#x100;" horiz-adv-x="742" 
d="M217 301h311l-155 383zM316 752h114l301 -752h-82l-90 224h-373l-91 -224h-84zM251 925h240v-67h-240v67z" />
    <glyph glyph-name="Aogonek" unicode="&#x104;" horiz-adv-x="742" 
d="M217 301h311l-155 383zM573 -204q-40 22 -40 78q0 46 29 82t82 56l-85 212h-373l-91 -224h-84l305 752h114l301 -752h-55q-39 -17 -61.5 -45.5t-22.5 -59.5q0 -27 19 -44.5t60 -17.5v-59q-58 0 -98 22z" />
    <glyph glyph-name="Aring" unicode="&#xc5;" horiz-adv-x="742" 
d="M217 301h311l-155 383zM316 752h114l301 -752h-82l-90 224h-373l-91 -224h-84zM288.5 864q-33.5 33 -33.5 84t33.5 84.5t83.5 33.5t83 -33.5t33 -84.5t-33 -84t-83 -33t-83.5 33zM329 901.5q17 -18.5 43 -18.5q25 0 42 18.5t17 46.5t-17 47t-42 19t-42.5 -19t-17.5 -47
t17 -46.5z" />
    <glyph glyph-name="Atilde" unicode="&#xc3;" horiz-adv-x="742" 
d="M217 301h311l-155 383zM316 752h114l301 -752h-82l-90 224h-373l-91 -224h-84zM409.5 872q-19.5 7 -44.5 21q-19 10 -31 15t-25 5q-21 0 -35.5 -11.5t-14.5 -34.5h-74q0 48 29.5 78.5t80.5 30.5q25 0 44 -7t43 -21q19 -11 31 -16t25 -5q21 0 32 10t11 36h73
q0 -52 -27.5 -80t-73.5 -28q-24 0 -43.5 7z" />
    <glyph glyph-name="AE" unicode="&#xc6;" horiz-adv-x="1122" 
d="M490 752h579v-75h-451v-260h418v-76h-418v-265h460v-76h-539v254h-280l-163 -254h-85zM539 327v364l-233 -364h233z" />
    <glyph glyph-name="B" unicode="B" horiz-adv-x="733" 
d="M89 752h348q109 0 165 -49t56 -139q0 -56 -24 -98.5t-70 -67.5q61 -21 93 -68t32 -112t-29.5 -114.5t-85.5 -76.5t-131 -27h-354v752zM564 114q46 39 46 104q0 69 -46.5 104t-149.5 35h-247v-282h266q85 0 131 39zM581 556q0 56 -38 88.5t-110 32.5h-265v-245h235
q178 0 178 124z" />
    <glyph glyph-name="uni1E04" unicode="&#x1e04;" horiz-adv-x="733" 
d="M89 752h348q109 0 165 -49t56 -139q0 -56 -24 -98.5t-70 -67.5q61 -21 93 -68t32 -112t-29.5 -114.5t-85.5 -76.5t-131 -27h-354v752zM564 114q46 39 46 104q0 69 -46.5 104t-149.5 35h-247v-282h266q85 0 131 39zM581 556q0 56 -38 88.5t-110 32.5h-265v-245h235
q178 0 178 124zM315 -170.5q-16 16.5 -16 39.5t16 39t39 16t39 -16t16 -39t-16 -39.5t-39 -16.5t-39 16.5z" />
    <glyph glyph-name="C" unicode="C" horiz-adv-x="777" 
d="M224.5 35.5q-85.5 47.5 -133 133.5t-47.5 197q0 115 45 205.5t128 141.5t193 51q114 0 197 -50.5t123 -146.5l-73 -27q-68 148 -247 148q-85 0 -150 -40.5t-100.5 -113t-35.5 -164.5q0 -90 37 -159.5t104 -108t154 -38.5q91 0 160 51.5t103 151.5l75 -20
q-42 -126 -130 -192.5t-207 -66.5q-110 0 -195.5 47.5z" />
    <glyph glyph-name="Cacute" unicode="&#x106;" horiz-adv-x="777" 
d="M224.5 35.5q-85.5 47.5 -133 133.5t-47.5 197q0 115 45 205.5t128 141.5t193 51q114 0 197 -50.5t123 -146.5l-73 -27q-68 148 -247 148q-85 0 -150 -40.5t-100.5 -113t-35.5 -164.5q0 -90 37 -159.5t104 -108t154 -38.5q91 0 160 51.5t103 151.5l75 -20
q-42 -126 -130 -192.5t-207 -66.5q-110 0 -195.5 47.5zM326 872l120 119l53 -52l-120 -121z" />
    <glyph glyph-name="Ccaron" unicode="&#x10c;" horiz-adv-x="777" 
d="M224.5 35.5q-85.5 47.5 -133 133.5t-47.5 197q0 115 45 205.5t128 141.5t193 51q114 0 197 -50.5t123 -146.5l-73 -27q-68 148 -247 148q-85 0 -150 -40.5t-100.5 -113t-35.5 -164.5q0 -90 37 -159.5t104 -108t154 -38.5q91 0 160 51.5t103 151.5l75 -20
q-42 -126 -130 -192.5t-207 -66.5q-110 0 -195.5 47.5zM380 906l75 58l75 -10l-109 -116l-99 126l35 -30z" />
    <glyph glyph-name="Ccedilla" unicode="&#xc7;" horiz-adv-x="777" 
d="M391 -158q25 0 37 8t12 22q0 35 -71 35l19 82q-102 7 -180 56.5t-121 132.5t-43 188q0 115 45 205.5t128 141.5t193 51q114 0 197 -50.5t123 -146.5l-73 -27q-68 148 -247 148q-85 0 -150 -40.5t-100.5 -113t-35.5 -164.5q0 -90 37 -159.5t104 -108t154 -38.5
q91 0 160 51.5t103 151.5l75 -20q-42 -124 -127 -190.5t-201 -68.5l-5 -46q40 -5 60.5 -24t20.5 -49q0 -39 -31.5 -62t-84.5 -23q-21 0 -49 5l11 57q21 -4 40 -4z" />
    <glyph glyph-name="Ccircumflex" unicode="&#x108;" horiz-adv-x="777" 
d="M224.5 35.5q-85.5 47.5 -133 133.5t-47.5 197q0 115 45 205.5t128 141.5t193 51q114 0 197 -50.5t123 -146.5l-73 -27q-68 148 -247 148q-85 0 -150 -40.5t-100.5 -113t-35.5 -164.5q0 -90 37 -159.5t104 -108t154 -38.5q91 0 160 51.5t103 151.5l75 -20
q-42 -126 -130 -192.5t-207 -66.5q-110 0 -195.5 47.5zM292 851l150 95l98 -126l-75 11l-64 48l-75 -59z" />
    <glyph glyph-name="Cdotaccent" unicode="&#x10a;" horiz-adv-x="777" 
d="M224.5 35.5q-85.5 47.5 -133 133.5t-47.5 197q0 115 45 205.5t128 141.5t193 51q114 0 197 -50.5t123 -146.5l-73 -27q-68 148 -247 148q-85 0 -150 -40.5t-100.5 -113t-35.5 -164.5q0 -90 37 -159.5t104 -108t154 -38.5q91 0 160 51.5t103 151.5l75 -20
q-42 -126 -130 -192.5t-207 -66.5q-110 0 -195.5 47.5zM358 964h105v-102h-105v102z" />
    <glyph glyph-name="D" unicode="D" horiz-adv-x="788" 
d="M89 752h297q115 0 195.5 -45t121.5 -129t41 -198q0 -113 -41.5 -199t-122 -133.5t-194.5 -47.5h-297v752zM584.5 151.5q76.5 77.5 76.5 229.5q0 298 -297 298h-195v-605h195q144 0 220.5 77.5z" />
    <glyph glyph-name="Dcaron" unicode="&#x10e;" horiz-adv-x="788" 
d="M89 752h297q115 0 195.5 -45t121.5 -129t41 -198q0 -113 -41.5 -199t-122 -133.5t-194.5 -47.5h-297v752zM584.5 151.5q76.5 77.5 76.5 229.5q0 298 -297 298h-195v-605h195q144 0 220.5 77.5zM325 906l75 58l75 -10l-109 -116l-99 126l35 -30z" />
    <glyph glyph-name="Dcroat" unicode="&#x110;" horiz-adv-x="809" 
d="M110 339h-147v73h147v340h297q115 0 195.5 -45t121.5 -129t41 -198q0 -113 -41.5 -199t-122 -133.5t-194.5 -47.5h-297v339zM605.5 151.5q76.5 77.5 76.5 229.5q0 298 -297 298h-195v-267h146v-73h-146v-265h195q144 0 220.5 77.5z" />
    <glyph glyph-name="uni1E0C" unicode="&#x1e0c;" horiz-adv-x="788" 
d="M89 752h297q115 0 195.5 -45t121.5 -129t41 -198q0 -113 -41.5 -199t-122 -133.5t-194.5 -47.5h-297v752zM584.5 151.5q76.5 77.5 76.5 229.5q0 298 -297 298h-195v-605h195q144 0 220.5 77.5zM317 -170.5q-16 16.5 -16 39.5t16 39t39 16t39 -16t16 -39t-16 -39.5
t-39 -16.5t-39 16.5z" />
    <glyph glyph-name="Eth" unicode="&#xd0;" horiz-adv-x="809" 
d="M110 339h-147v73h147v340h297q115 0 195.5 -45t121.5 -129t41 -198q0 -113 -41.5 -199t-122 -133.5t-194.5 -47.5h-297v339zM605.5 151.5q76.5 77.5 76.5 229.5q0 298 -297 298h-195v-267h146v-73h-146v-265h195q144 0 220.5 77.5z" />
    <glyph glyph-name="E" unicode="E" horiz-adv-x="671" 
d="M89 752h530v-75h-451v-260h418v-76h-418v-265h460v-76h-539v752z" />
    <glyph glyph-name="Eacute" unicode="&#xc9;" horiz-adv-x="671" 
d="M89 752h530v-75h-451v-260h418v-76h-418v-265h460v-76h-539v752zM279 872l120 119l53 -52l-120 -121z" />
    <glyph glyph-name="Ebreve" unicode="&#x114;" horiz-adv-x="671" 
d="M89 752h530v-75h-451v-260h418v-76h-418v-265h460v-76h-539v752zM263.5 865q-37.5 37 -37.5 99h68q0 -33 18.5 -52.5t50.5 -19.5t51 19.5t19 52.5h69q0 -62 -38 -99t-101 -37q-62 0 -99.5 37z" />
    <glyph glyph-name="Ecaron" unicode="&#x11a;" horiz-adv-x="671" 
d="M89 752h530v-75h-451v-260h418v-76h-418v-265h460v-76h-539v752zM334 906l75 58l75 -10l-109 -116l-99 126l35 -30z" />
    <glyph glyph-name="uni0228" unicode="&#x228;" horiz-adv-x="671" 
d="M89 752h530v-75h-451v-260h418v-76h-418v-265h460v-76h-245l-6 -58q40 -5 60.5 -24t20.5 -49q0 -39 -31.5 -62t-84.5 -23q-21 0 -49 5l11 57q21 -4 40 -4q25 0 37 8t12 22q0 35 -71 35l22 93h-255v752z" />
    <glyph glyph-name="Ecircumflex" unicode="&#xca;" horiz-adv-x="671" 
d="M89 752h530v-75h-451v-260h418v-76h-418v-265h460v-76h-539v752zM246 851l150 95l98 -126l-75 11l-64 48l-75 -59z" />
    <glyph glyph-name="Edieresis" unicode="&#xcb;" horiz-adv-x="671" 
d="M89 752h530v-75h-451v-260h418v-76h-418v-265h460v-76h-539v752zM416 864q-16 16 -16 39t16 39.5t39 16.5t39 -16.5t16 -39.5t-16 -39t-39 -16t-39 16zM234 942.5q16 16.5 39 16.5t39 -16.5t16 -39.5t-16 -39t-39 -16t-39 16t-16 39t16 39.5z" />
    <glyph glyph-name="Edotaccent" unicode="&#x116;" horiz-adv-x="671" 
d="M89 752h530v-75h-451v-260h418v-76h-418v-265h460v-76h-539v752zM312 964h105v-102h-105v102z" />
    <glyph glyph-name="uni1EB8" unicode="&#x1eb8;" horiz-adv-x="671" 
d="M89 752h530v-75h-451v-260h418v-76h-418v-265h460v-76h-539v752zM326 -170.5q-16 16.5 -16 39.5t16 39t39 16t39 -16t16 -39t-16 -39.5t-39 -16.5t-39 16.5z" />
    <glyph glyph-name="Egrave" unicode="&#xc8;" horiz-adv-x="671" 
d="M89 752h530v-75h-451v-260h418v-76h-418v-265h460v-76h-539v752zM256 939l54 52l119 -119l-53 -54z" />
    <glyph glyph-name="Emacron" unicode="&#x112;" horiz-adv-x="671" 
d="M89 752h530v-75h-451v-260h418v-76h-418v-265h460v-76h-539v752zM244 925h240v-67h-240v67z" />
    <glyph glyph-name="Eogonek" unicode="&#x118;" horiz-adv-x="671" 
d="M89 752h530v-75h-451v-260h418v-76h-418v-265h460v-76h-62q-41 -17 -65 -46t-24 -61q0 -27 19 -44.5t60 -17.5v-59q-58 0 -98 22t-40 78q0 41 22.5 73.5t65.5 54.5h-417v752z" />
    <glyph glyph-name="uni1EBC" unicode="&#x1ebc;" horiz-adv-x="671" 
d="M89 752h530v-75h-451v-260h418v-76h-418v-265h460v-76h-539v752zM402.5 872q-19.5 7 -44.5 21q-19 10 -31 15t-25 5q-21 0 -35.5 -11.5t-14.5 -34.5h-74q0 48 29.5 78.5t80.5 30.5q25 0 44 -7t43 -21q19 -11 31 -16t25 -5q21 0 32 10t11 36h73q0 -52 -27.5 -80t-73.5 -28
q-24 0 -43.5 7z" />
    <glyph glyph-name="uni018F" unicode="&#x18f;" horiz-adv-x="804" 
d="M214 37.5q-81 48.5 -124.5 143t-43.5 229.5h634q0 76 -35.5 142t-101 106t-151.5 40q-57 0 -113 -24.5t-97.5 -67.5t-56.5 -97l-76 25q40 114 132.5 175t208.5 61q120 0 203.5 -55.5t125 -144t41.5 -187.5q0 -188 -91 -291t-261 -103q-113 0 -194 48.5zM601 126
q79 69 79 216h-550q0 -98 42 -162t104 -93.5t124 -29.5q122 0 201 69z" />
    <glyph glyph-name="F" unicode="F" horiz-adv-x="609" 
d="M89 752h501v-76h-422v-243h374v-77h-374v-356h-79v752z" />
    <glyph glyph-name="G" unicode="G" horiz-adv-x="794" 
d="M202.5 36q-77.5 47 -118 133.5t-40.5 204.5q0 117 44.5 205t128 136.5t196.5 48.5q111 0 196 -57.5t123 -157.5l-74 -31q-31 77 -96.5 122t-148.5 45q-88 0 -153 -38.5t-100 -108.5t-35 -164q0 -142 71 -225t198 -83q114 0 183.5 69t77.5 192h-364v75h442v-401h-74v135
q-38 -68 -110 -107.5t-161 -39.5q-108 0 -185.5 47z" />
    <glyph glyph-name="Gbreve" unicode="&#x11e;" horiz-adv-x="794" 
d="M202.5 36q-77.5 47 -118 133.5t-40.5 204.5q0 117 44.5 205t128 136.5t196.5 48.5q111 0 196 -57.5t123 -157.5l-74 -31q-31 77 -96.5 122t-148.5 45q-88 0 -153 -38.5t-100 -108.5t-35 -164q0 -142 71 -225t198 -83q114 0 183.5 69t77.5 192h-364v75h442v-401h-74v135
q-38 -68 -110 -107.5t-161 -39.5q-108 0 -185.5 47zM299.5 865q-37.5 37 -37.5 99h68q0 -33 18.5 -52.5t50.5 -19.5t51 19.5t19 52.5h69q0 -62 -38 -99t-101 -37q-62 0 -99.5 37z" />
    <glyph glyph-name="Gcaron" unicode="&#x1e6;" horiz-adv-x="794" 
d="M202.5 36q-77.5 47 -118 133.5t-40.5 204.5q0 117 44.5 205t128 136.5t196.5 48.5q111 0 196 -57.5t123 -157.5l-74 -31q-31 77 -96.5 122t-148.5 45q-88 0 -153 -38.5t-100 -108.5t-35 -164q0 -142 71 -225t198 -83q114 0 183.5 69t77.5 192h-364v75h442v-401h-74v135
q-38 -68 -110 -107.5t-161 -39.5q-108 0 -185.5 47zM370 906l75 58l75 -10l-109 -116l-99 126l35 -30z" />
    <glyph glyph-name="Gcircumflex" unicode="&#x11c;" horiz-adv-x="794" 
d="M202.5 36q-77.5 47 -118 133.5t-40.5 204.5q0 117 44.5 205t128 136.5t196.5 48.5q111 0 196 -57.5t123 -157.5l-74 -31q-31 77 -96.5 122t-148.5 45q-88 0 -153 -38.5t-100 -108.5t-35 -164q0 -142 71 -225t198 -83q114 0 183.5 69t77.5 192h-364v75h442v-401h-74v135
q-38 -68 -110 -107.5t-161 -39.5q-108 0 -185.5 47zM282 851l150 95l98 -126l-75 11l-64 48l-75 -59z" />
    <glyph glyph-name="uni0122" unicode="&#x122;" horiz-adv-x="794" 
d="M202.5 36q-77.5 47 -118 133.5t-40.5 204.5q0 117 44.5 205t128 136.5t196.5 48.5q111 0 196 -57.5t123 -157.5l-74 -31q-31 77 -96.5 122t-148.5 45q-88 0 -153 -38.5t-100 -108.5t-35 -164q0 -142 71 -225t198 -83q114 0 183.5 69t77.5 192h-364v75h442v-401h-74v135
q-38 -68 -110 -107.5t-161 -39.5q-108 0 -185.5 47zM459 -84v-108q0 -34 -22.5 -60t-79.5 -26v38q56 0 56 42h-69v114h115z" />
    <glyph glyph-name="Gdotaccent" unicode="&#x120;" horiz-adv-x="794" 
d="M202.5 36q-77.5 47 -118 133.5t-40.5 204.5q0 117 44.5 205t128 136.5t196.5 48.5q111 0 196 -57.5t123 -157.5l-74 -31q-31 77 -96.5 122t-148.5 45q-88 0 -153 -38.5t-100 -108.5t-35 -164q0 -142 71 -225t198 -83q114 0 183.5 69t77.5 192h-364v75h442v-401h-74v135
q-38 -68 -110 -107.5t-161 -39.5q-108 0 -185.5 47zM348 964h105v-102h-105v102z" />
    <glyph glyph-name="uni1E20" unicode="&#x1e20;" horiz-adv-x="794" 
d="M202.5 36q-77.5 47 -118 133.5t-40.5 204.5q0 117 44.5 205t128 136.5t196.5 48.5q111 0 196 -57.5t123 -157.5l-74 -31q-31 77 -96.5 122t-148.5 45q-88 0 -153 -38.5t-100 -108.5t-35 -164q0 -142 71 -225t198 -83q114 0 183.5 69t77.5 192h-364v75h442v-401h-74v135
q-38 -68 -110 -107.5t-161 -39.5q-108 0 -185.5 47zM281 925h240v-67h-240v67z" />
    <glyph glyph-name="H" unicode="H" horiz-adv-x="791" 
d="M89 752h81v-326h450v326h83v-752h-83v347h-450v-347h-81v752z" />
    <glyph glyph-name="Hbar" unicode="&#x126;" horiz-adv-x="803" 
d="M95 609h-57v61h57v82h81v-82h450v82h83v-82h55v-61h-55v-609h-83v347h-450v-347h-81v609zM626 426v183h-450v-183h450z" />
    <glyph glyph-name="Hcircumflex" unicode="&#x124;" horiz-adv-x="791" 
d="M89 752h81v-326h450v326h83v-752h-83v347h-450v-347h-81v752zM278 851l150 95l98 -126l-75 11l-64 48l-75 -59z" />
    <glyph glyph-name="uni1E24" unicode="&#x1e24;" horiz-adv-x="791" 
d="M89 752h81v-326h450v326h83v-752h-83v347h-450v-347h-81v752zM358 -170.5q-16 16.5 -16 39.5t16 39t39 16t39 -16t16 -39t-16 -39.5t-39 -16.5t-39 16.5z" />
    <glyph glyph-name="I" unicode="I" horiz-adv-x="258" 
d="M89 752h81v-752h-81v752z" />
    <glyph glyph-name="IJ" unicode="&#x132;" horiz-adv-x="838" 
d="M89 752h81v-752h-81v752zM345.5 42.5q-63.5 54.5 -63.5 152.5l76 12q0 -69 42 -105.5t117 -36.5q76 0 118.5 43.5t42.5 126.5v517h79v-520q0 -114 -64.5 -179t-175.5 -65q-108 0 -171.5 54.5z" />
    <glyph glyph-name="Iacute" unicode="&#xcd;" horiz-adv-x="258" 
d="M89 752h81v-752h-81v752zM44 872l120 119l53 -52l-120 -121z" />
    <glyph glyph-name="Ibreve" unicode="&#x12c;" horiz-adv-x="258" 
d="M89 752h81v-752h-81v752zM28.5 865q-37.5 37 -37.5 99h68q0 -33 18.5 -52.5t50.5 -19.5t51 19.5t19 52.5h69q0 -62 -38 -99t-101 -37q-62 0 -99.5 37z" />
    <glyph glyph-name="uni01CF" unicode="&#x1cf;" horiz-adv-x="258" 
d="M89 752h81v-752h-81v752zM99 906l75 58l75 -10l-109 -116l-99 126l35 -30z" />
    <glyph glyph-name="Icircumflex" unicode="&#xce;" horiz-adv-x="258" 
d="M89 752h81v-752h-81v752zM11 851l150 95l98 -126l-75 11l-64 48l-75 -59z" />
    <glyph glyph-name="Idieresis" unicode="&#xcf;" horiz-adv-x="258" 
d="M89 752h81v-752h-81v752zM181 864q-16 16 -16 39t16 39.5t39 16.5t39 -16.5t16 -39.5t-16 -39t-39 -16t-39 16zM-1 942.5q16 16.5 39 16.5t39 -16.5t16 -39.5t-16 -39t-39 -16t-39 16t-16 39t16 39.5z" />
    <glyph glyph-name="Idotaccent" unicode="&#x130;" horiz-adv-x="258" 
d="M89 752h81v-752h-81v752zM77 964h105v-102h-105v102z" />
    <glyph glyph-name="uni1ECA" unicode="&#x1eca;" horiz-adv-x="258" 
d="M89 752h81v-752h-81v752zM92 -170.5q-16 16.5 -16 39.5t16 39t39 16t39 -16t16 -39t-16 -39.5t-39 -16.5t-39 16.5z" />
    <glyph glyph-name="Igrave" unicode="&#xcc;" horiz-adv-x="258" 
d="M89 752h81v-752h-81v752zM21 939l54 52l119 -119l-53 -54z" />
    <glyph glyph-name="Imacron" unicode="&#x12a;" horiz-adv-x="258" 
d="M89 752h81v-752h-81v752zM10 925h240v-67h-240v67z" />
    <glyph glyph-name="Iogonek" unicode="&#x12e;" horiz-adv-x="258" 
d="M89 752h81v-752q-41 -17 -65 -46t-24 -61q0 -27 19 -44.5t60 -17.5v-59q-58 0 -98 22t-40 78q0 41 22.5 73.5t65.5 54.5h-21v752z" />
    <glyph glyph-name="Itilde" unicode="&#x128;" horiz-adv-x="258" 
d="M89 752h81v-752h-81v752zM168.5 872q-19.5 7 -44.5 21q-19 10 -31 15t-25 5q-21 0 -35.5 -11.5t-14.5 -34.5h-74q0 48 29.5 78.5t80.5 30.5q25 0 44 -7t43 -21q19 -11 31 -16t25 -5q21 0 32 10t11 36h73q0 -52 -27.5 -80t-73.5 -28q-24 0 -43.5 7z" />
    <glyph glyph-name="J" unicode="J" horiz-adv-x="580" 
d="M87.5 42.5q-63.5 54.5 -63.5 152.5l76 12q0 -69 42 -105.5t117 -36.5q76 0 118.5 43.5t42.5 126.5v517h79v-520q0 -114 -64.5 -179t-175.5 -65q-108 0 -171.5 54.5z" />
    <glyph glyph-name="uni004A0301" horiz-adv-x="580" 
d="M87.5 42.5q-63.5 54.5 -63.5 152.5l76 12q0 -69 42 -105.5t117 -36.5q76 0 118.5 43.5t42.5 126.5v517h79v-520q0 -114 -64.5 -179t-175.5 -65q-108 0 -171.5 54.5zM373 872l120 119l53 -52l-120 -121z" />
    <glyph glyph-name="Jcircumflex" unicode="&#x134;" horiz-adv-x="580" 
d="M87.5 42.5q-63.5 54.5 -63.5 152.5l76 12q0 -69 42 -105.5t117 -36.5q76 0 118.5 43.5t42.5 126.5v517h79v-520q0 -114 -64.5 -179t-175.5 -65q-108 0 -171.5 54.5zM340 851l150 95l98 -126l-75 11l-64 48l-75 -59z" />
    <glyph glyph-name="K" unicode="K" horiz-adv-x="719" 
d="M89 752h79v-376l420 376h115l-315 -287l342 -465h-98l-301 408l-163 -146v-262h-79v752z" />
    <glyph glyph-name="uni01E8" unicode="&#x1e8;" horiz-adv-x="719" 
d="M89 752h79v-376l420 376h115l-315 -287l342 -465h-98l-301 408l-163 -146v-262h-79v752zM327 906l75 58l75 -10l-109 -116l-99 126l35 -30z" />
    <glyph glyph-name="uni0136" unicode="&#x136;" horiz-adv-x="719" 
d="M89 752h79v-376l420 376h115l-315 -287l342 -465h-98l-301 408l-163 -146v-262h-79v752zM416 -84v-108q0 -34 -22.5 -60t-79.5 -26v38q56 0 56 42h-69v114h115z" />
    <glyph glyph-name="L" unicode="L" horiz-adv-x="633" 
d="M89 752h80v-673h451v-79h-531v752z" />
    <glyph glyph-name="Lacute" unicode="&#x139;" horiz-adv-x="633" 
d="M89 752h80v-673h451v-79h-531v752zM70 872l120 119l53 -52l-120 -121z" />
    <glyph glyph-name="Lcaron" unicode="&#x13d;" horiz-adv-x="633" 
d="M89 752h80v-673h451v-79h-531v752zM360 752v-102q0 -31 -16.5 -56.5t-59.5 -25.5v34q17 0 28 9.5t11 38.5h-39v102h76z" />
    <glyph glyph-name="uni013B" unicode="&#x13b;" horiz-adv-x="633" 
d="M89 752h80v-673h451v-79h-531v752zM424 -84v-108q0 -34 -22.5 -60t-79.5 -26v38q56 0 56 42h-69v114h115z" />
    <glyph glyph-name="Ldot" unicode="&#x13f;" horiz-adv-x="633" 
d="M89 752h80v-673h451v-79h-531v752zM508 468v-115h-115v115h115z" />
    <glyph glyph-name="uni1E36" unicode="&#x1e36;" horiz-adv-x="633" 
d="M89 752h80v-673h451v-79h-531v752zM327 -170.5q-16 16.5 -16 39.5t16 39t39 16t39 -16t16 -39t-16 -39.5t-39 -16.5t-39 16.5z" />
    <glyph glyph-name="Lslash" unicode="&#x141;" horiz-adv-x="650" 
d="M106 291h-81l81 95v366h80v-291h81l-81 -94v-288h451v-79h-531v291z" />
    <glyph glyph-name="M" unicode="M" horiz-adv-x="932" 
d="M89 752h110l270 -654l265 654h109v-752h-79v627l-256 -627h-80l-260 626v-626h-79v752z" />
    <glyph glyph-name="N" unicode="N" horiz-adv-x="794" 
d="M89 752h85l452 -626v626h80v-752h-84l-453 629v-629h-80v752z" />
    <glyph glyph-name="Nacute" unicode="&#x143;" horiz-adv-x="794" 
d="M89 752h85l452 -626v626h80v-752h-84l-453 629v-629h-80v752zM316 872l120 119l53 -52l-120 -121z" />
    <glyph glyph-name="Ncaron" unicode="&#x147;" horiz-adv-x="794" 
d="M89 752h85l452 -626v626h80v-752h-84l-453 629v-629h-80v752zM371 906l75 58l75 -10l-109 -116l-99 126l35 -30z" />
    <glyph glyph-name="uni0145" unicode="&#x145;" horiz-adv-x="794" 
d="M89 752h85l452 -626v626h80v-752h-84l-453 629v-629h-80v752zM455 -84v-108q0 -34 -22.5 -60t-79.5 -26v38q56 0 56 42h-69v114h115z" />
    <glyph glyph-name="uni1E44" unicode="&#x1e44;" horiz-adv-x="794" 
d="M89 752h85l452 -626v626h80v-752h-84l-453 629v-629h-80v752zM349 964h105v-102h-105v102z" />
    <glyph glyph-name="uni1E46" unicode="&#x1e46;" horiz-adv-x="794" 
d="M89 752h85l452 -626v626h80v-752h-84l-453 629v-629h-80v752zM358 -170.5q-16 16.5 -16 39.5t16 39t39 16t39 -16t16 -39t-16 -39.5t-39 -16.5t-39 16.5z" />
    <glyph glyph-name="Ntilde" unicode="&#xd1;" horiz-adv-x="794" 
d="M89 752h85l452 -626v626h80v-752h-84l-453 629v-629h-80v752zM440.5 872q-19.5 7 -44.5 21q-19 10 -31 15t-25 5q-21 0 -35.5 -11.5t-14.5 -34.5h-74q0 48 29.5 78.5t80.5 30.5q25 0 44 -7t43 -21q19 -11 31 -16t25 -5q21 0 32 10t11 36h73q0 -52 -27.5 -80t-73.5 -28
q-24 0 -43.5 7z" />
    <glyph glyph-name="Eng" unicode="&#x14a;" horiz-adv-x="794" 
d="M89 752h85l452 -626v626h80v-826q0 -81 -33 -118.5t-92 -37.5q-31 0 -67 9v79q32 -9 50 -9q30 0 46.5 19.5t16.5 65.5v66h-5l-453 629v-629h-80v752z" />
    <glyph glyph-name="O" unicode="O" horiz-adv-x="828" 
d="M224 31.5q-85 50.5 -132.5 140t-47.5 201.5q0 111 46 202t131 143t195 52q109 0 193 -52.5t129.5 -143t45.5 -201.5q0 -112 -47 -201.5t-131 -140t-190 -50.5q-107 0 -192 50.5zM165 209q37 -72 102.5 -112t148.5 -40q82 0 147 40t102 112t37 165q0 92 -35.5 164.5
t-100.5 113.5t-150 41q-86 0 -151.5 -41t-101 -113.5t-35.5 -164.5q0 -93 37 -165z" />
    <glyph glyph-name="Oacute" unicode="&#xd3;" horiz-adv-x="828" 
d="M224 31.5q-85 50.5 -132.5 140t-47.5 201.5q0 111 46 202t131 143t195 52q109 0 193 -52.5t129.5 -143t45.5 -201.5q0 -112 -47 -201.5t-131 -140t-190 -50.5q-107 0 -192 50.5zM165 209q37 -72 102.5 -112t148.5 -40q82 0 147 40t102 112t37 165q0 92 -35.5 164.5
t-100.5 113.5t-150 41q-86 0 -151.5 -41t-101 -113.5t-35.5 -164.5q0 -93 37 -165zM329 872l120 119l53 -52l-120 -121z" />
    <glyph glyph-name="Obreve" unicode="&#x14e;" horiz-adv-x="828" 
d="M224 31.5q-85 50.5 -132.5 140t-47.5 201.5q0 111 46 202t131 143t195 52q109 0 193 -52.5t129.5 -143t45.5 -201.5q0 -112 -47 -201.5t-131 -140t-190 -50.5q-107 0 -192 50.5zM165 209q37 -72 102.5 -112t148.5 -40q82 0 147 40t102 112t37 165q0 92 -35.5 164.5
t-100.5 113.5t-150 41q-86 0 -151.5 -41t-101 -113.5t-35.5 -164.5q0 -93 37 -165zM313.5 865q-37.5 37 -37.5 99h68q0 -33 18.5 -52.5t50.5 -19.5t51 19.5t19 52.5h69q0 -62 -38 -99t-101 -37q-62 0 -99.5 37z" />
    <glyph glyph-name="uni01D1" unicode="&#x1d1;" horiz-adv-x="828" 
d="M224 31.5q-85 50.5 -132.5 140t-47.5 201.5q0 111 46 202t131 143t195 52q109 0 193 -52.5t129.5 -143t45.5 -201.5q0 -112 -47 -201.5t-131 -140t-190 -50.5q-107 0 -192 50.5zM165 209q37 -72 102.5 -112t148.5 -40q82 0 147 40t102 112t37 165q0 92 -35.5 164.5
t-100.5 113.5t-150 41q-86 0 -151.5 -41t-101 -113.5t-35.5 -164.5q0 -93 37 -165zM384 906l75 58l75 -10l-109 -116l-99 126l35 -30z" />
    <glyph glyph-name="Ocircumflex" unicode="&#xd4;" horiz-adv-x="828" 
d="M224 31.5q-85 50.5 -132.5 140t-47.5 201.5q0 111 46 202t131 143t195 52q109 0 193 -52.5t129.5 -143t45.5 -201.5q0 -112 -47 -201.5t-131 -140t-190 -50.5q-107 0 -192 50.5zM165 209q37 -72 102.5 -112t148.5 -40q82 0 147 40t102 112t37 165q0 92 -35.5 164.5
t-100.5 113.5t-150 41q-86 0 -151.5 -41t-101 -113.5t-35.5 -164.5q0 -93 37 -165zM296 851l150 95l98 -126l-75 11l-64 48l-75 -59z" />
    <glyph glyph-name="Odieresis" unicode="&#xd6;" horiz-adv-x="828" 
d="M224 31.5q-85 50.5 -132.5 140t-47.5 201.5q0 111 46 202t131 143t195 52q109 0 193 -52.5t129.5 -143t45.5 -201.5q0 -112 -47 -201.5t-131 -140t-190 -50.5q-107 0 -192 50.5zM165 209q37 -72 102.5 -112t148.5 -40q82 0 147 40t102 112t37 165q0 92 -35.5 164.5
t-100.5 113.5t-150 41q-86 0 -151.5 -41t-101 -113.5t-35.5 -164.5q0 -93 37 -165zM467 864q-16 16 -16 39t16 39.5t39 16.5t39 -16.5t16 -39.5t-16 -39t-39 -16t-39 16zM285 942.5q16 16.5 39 16.5t39 -16.5t16 -39.5t-16 -39t-39 -16t-39 16t-16 39t16 39.5z" />
    <glyph glyph-name="uni1ECC" unicode="&#x1ecc;" horiz-adv-x="828" 
d="M224 31.5q-85 50.5 -132.5 140t-47.5 201.5q0 111 46 202t131 143t195 52q109 0 193 -52.5t129.5 -143t45.5 -201.5q0 -112 -47 -201.5t-131 -140t-190 -50.5q-107 0 -192 50.5zM165 209q37 -72 102.5 -112t148.5 -40q82 0 147 40t102 112t37 165q0 92 -35.5 164.5
t-100.5 113.5t-150 41q-86 0 -151.5 -41t-101 -113.5t-35.5 -164.5q0 -93 37 -165zM376 -170.5q-16 16.5 -16 39.5t16 39t39 16t39 -16t16 -39t-16 -39.5t-39 -16.5t-39 16.5z" />
    <glyph glyph-name="Ograve" unicode="&#xd2;" horiz-adv-x="828" 
d="M224 31.5q-85 50.5 -132.5 140t-47.5 201.5q0 111 46 202t131 143t195 52q109 0 193 -52.5t129.5 -143t45.5 -201.5q0 -112 -47 -201.5t-131 -140t-190 -50.5q-107 0 -192 50.5zM165 209q37 -72 102.5 -112t148.5 -40q82 0 147 40t102 112t37 165q0 92 -35.5 164.5
t-100.5 113.5t-150 41q-86 0 -151.5 -41t-101 -113.5t-35.5 -164.5q0 -93 37 -165zM306 939l54 52l119 -119l-53 -54z" />
    <glyph glyph-name="Ohungarumlaut" unicode="&#x150;" horiz-adv-x="828" 
d="M224 31.5q-85 50.5 -132.5 140t-47.5 201.5q0 111 46 202t131 143t195 52q109 0 193 -52.5t129.5 -143t45.5 -201.5q0 -112 -47 -201.5t-131 -140t-190 -50.5q-107 0 -192 50.5zM165 209q37 -72 102.5 -112t148.5 -40q82 0 147 40t102 112t37 165q0 92 -35.5 164.5
t-100.5 113.5t-150 41q-86 0 -151.5 -41t-101 -113.5t-35.5 -164.5q0 -93 37 -165zM434 871l118 117l52 -51l-118 -118zM402 988l52 -51l-117 -118l-52 52z" />
    <glyph glyph-name="Omacron" unicode="&#x14c;" horiz-adv-x="828" 
d="M224 31.5q-85 50.5 -132.5 140t-47.5 201.5q0 111 46 202t131 143t195 52q109 0 193 -52.5t129.5 -143t45.5 -201.5q0 -112 -47 -201.5t-131 -140t-190 -50.5q-107 0 -192 50.5zM165 209q37 -72 102.5 -112t148.5 -40q82 0 147 40t102 112t37 165q0 92 -35.5 164.5
t-100.5 113.5t-150 41q-86 0 -151.5 -41t-101 -113.5t-35.5 -164.5q0 -93 37 -165zM295 925h240v-67h-240v67z" />
    <glyph glyph-name="Oslash" unicode="&#xd8;" horiz-adv-x="828" 
d="M240 23l-63 -102l-66 40l65 105q-62 53 -97 132.5t-35 174.5q0 111 46 202t131 143t195 52q96 0 175 -42l64 103l64 -40l-66 -106q63 -54 97 -135t34 -177q0 -112 -47 -201.5t-131 -140t-190 -50.5q-95 0 -176 42zM152 239q24 -61 68 -104l329 527q-59 31 -133 31
q-86 0 -151.5 -41t-101 -113.5t-35.5 -164.5q0 -74 24 -135zM416 57q82 0 147 40t102 112t37 165q0 75 -23.5 137.5t-67.5 105.5l-329 -528q59 -32 134 -32z" />
    <glyph glyph-name="Otilde" unicode="&#xd5;" horiz-adv-x="828" 
d="M224 31.5q-85 50.5 -132.5 140t-47.5 201.5q0 111 46 202t131 143t195 52q109 0 193 -52.5t129.5 -143t45.5 -201.5q0 -112 -47 -201.5t-131 -140t-190 -50.5q-107 0 -192 50.5zM165 209q37 -72 102.5 -112t148.5 -40q82 0 147 40t102 112t37 165q0 92 -35.5 164.5
t-100.5 113.5t-150 41q-86 0 -151.5 -41t-101 -113.5t-35.5 -164.5q0 -93 37 -165zM453.5 872q-19.5 7 -44.5 21q-19 10 -31 15t-25 5q-21 0 -35.5 -11.5t-14.5 -34.5h-74q0 48 29.5 78.5t80.5 30.5q25 0 44 -7t43 -21q19 -11 31 -16t25 -5q21 0 32 10t11 36h73
q0 -52 -27.5 -80t-73.5 -28q-24 0 -43.5 7z" />
    <glyph glyph-name="OE" unicode="&#x152;" horiz-adv-x="1296" 
d="M224 31.5q-85 50.5 -132.5 140t-47.5 201.5q0 111 46 202t131 143t195 52q95 0 171.5 -40t125.5 -112v134h530v-75h-451v-260h418v-76h-418v-265h460v-76h-539v132q-50 -71 -126.5 -111t-170.5 -40q-107 0 -192 50.5zM165 209q37 -72 102.5 -112t148.5 -40q82 0 147 40
t102 112t37 165q0 92 -35.5 164.5t-100.5 113.5t-150 41q-86 0 -151.5 -41t-101 -113.5t-35.5 -164.5q0 -93 37 -165z" />
    <glyph glyph-name="P" unicode="P" horiz-adv-x="674" 
d="M528.5 431.5q44.5 40.5 44.5 103.5t-43.5 102t-116.5 39h-247v-285h246q72 0 116.5 40.5zM89 752h320q73 0 127.5 -27.5t84 -76.5t29.5 -112q0 -64 -29.5 -114t-84 -78t-127.5 -28h-243v-316h-77v752z" />
    <glyph glyph-name="Thorn" unicode="&#xde;" horiz-adv-x="674" 
d="M166 605h241q74 0 129 -27.5t84.5 -76t29.5 -111.5q0 -64 -29.5 -114t-84.5 -78.5t-129 -28.5h-241v-169h-77v752h77v-147zM411 245q73 0 117.5 40t44.5 103q0 64 -44 103t-118 39h-245v-285h245z" />
    <glyph glyph-name="Q" unicode="Q" horiz-adv-x="826" 
d="M222 31.5q-85 50.5 -132.5 140t-47.5 201.5q0 111 46 202t131 143t195 52q109 0 193 -52.5t129.5 -143t45.5 -201.5q0 -94 -33.5 -173t-94.5 -132l69 -111l-62 -38l-66 107q-82 -45 -181 -45q-107 0 -192 50.5zM163 209q37 -72 102.5 -112t148.5 -40q78 0 139 35
l-186 301l62 38l182 -294q43 43 66 103.5t23 133.5q0 92 -35.5 164.5t-100.5 113.5t-150 41q-86 0 -151.5 -41t-101 -113.5t-35.5 -164.5q0 -93 37 -165z" />
    <glyph glyph-name="R" unicode="R" horiz-adv-x="752" 
d="M89 752h342q117 2 177.5 -58t60.5 -158q0 -64 -36 -113.5t-99 -74.5l177 -348h-87l-163 329h-294v-329h-78v752zM548 441.5q45 37.5 45 98.5q0 63 -41 102t-122 39h-263v-277h263q73 0 118 37.5z" />
    <glyph glyph-name="Racute" unicode="&#x154;" horiz-adv-x="752" 
d="M89 752h342q117 2 177.5 -58t60.5 -158q0 -64 -36 -113.5t-99 -74.5l177 -348h-87l-163 329h-294v-329h-78v752zM548 441.5q45 37.5 45 98.5q0 63 -41 102t-122 39h-263v-277h263q73 0 118 37.5zM297 872l120 119l53 -52l-120 -121z" />
    <glyph glyph-name="Rcaron" unicode="&#x158;" horiz-adv-x="752" 
d="M89 752h342q117 2 177.5 -58t60.5 -158q0 -64 -36 -113.5t-99 -74.5l177 -348h-87l-163 329h-294v-329h-78v752zM548 441.5q45 37.5 45 98.5q0 63 -41 102t-122 39h-263v-277h263q73 0 118 37.5zM351 906l75 58l75 -10l-109 -116l-99 126l35 -30z" />
    <glyph glyph-name="uni0156" unicode="&#x156;" horiz-adv-x="752" 
d="M89 752h342q117 2 177.5 -58t60.5 -158q0 -64 -36 -113.5t-99 -74.5l177 -348h-87l-163 329h-294v-329h-78v752zM548 441.5q45 37.5 45 98.5q0 63 -41 102t-122 39h-263v-277h263q73 0 118 37.5zM440 -84v-108q0 -34 -22.5 -60t-79.5 -26v38q56 0 56 42h-69v114h115z" />
    <glyph glyph-name="S" unicode="S" horiz-adv-x="712" 
d="M207.5 11q-71.5 23 -117.5 73t-46 128h74q0 -51 36 -85t91 -50t113 -16q52 0 105.5 13.5t91.5 47t38 88.5q0 51 -32 79t-79.5 39t-128.5 20q-96 11 -154 26.5t-99 56t-41 117.5q0 72 44.5 121t113.5 72t141 23q70 0 137 -22t110 -67.5t43 -113.5h-80q0 68 -62 99.5
t-148 31.5q-52 0 -101.5 -15.5t-82.5 -49t-33 -85.5q0 -48 31 -73.5t76.5 -36t125.5 -19.5q98 -12 157 -27.5t100.5 -57t41.5 -119.5q0 -77 -47.5 -127t-119 -72t-148.5 -22q-79 0 -150.5 23z" />
    <glyph glyph-name="Sacute" unicode="&#x15a;" horiz-adv-x="712" 
d="M207.5 11q-71.5 23 -117.5 73t-46 128h74q0 -51 36 -85t91 -50t113 -16q52 0 105.5 13.5t91.5 47t38 88.5q0 51 -32 79t-79.5 39t-128.5 20q-96 11 -154 26.5t-99 56t-41 117.5q0 72 44.5 121t113.5 72t141 23q70 0 137 -22t110 -67.5t43 -113.5h-80q0 68 -62 99.5
t-148 31.5q-52 0 -101.5 -15.5t-82.5 -49t-33 -85.5q0 -48 31 -73.5t76.5 -36t125.5 -19.5q98 -12 157 -27.5t100.5 -57t41.5 -119.5q0 -77 -47.5 -127t-119 -72t-148.5 -22q-79 0 -150.5 23zM271 872l120 119l53 -52l-120 -121z" />
    <glyph glyph-name="Scaron" unicode="&#x160;" horiz-adv-x="712" 
d="M207.5 11q-71.5 23 -117.5 73t-46 128h74q0 -51 36 -85t91 -50t113 -16q52 0 105.5 13.5t91.5 47t38 88.5q0 51 -32 79t-79.5 39t-128.5 20q-96 11 -154 26.5t-99 56t-41 117.5q0 72 44.5 121t113.5 72t141 23q70 0 137 -22t110 -67.5t43 -113.5h-80q0 68 -62 99.5
t-148 31.5q-52 0 -101.5 -15.5t-82.5 -49t-33 -85.5q0 -48 31 -73.5t76.5 -36t125.5 -19.5q98 -12 157 -27.5t100.5 -57t41.5 -119.5q0 -77 -47.5 -127t-119 -72t-148.5 -22q-79 0 -150.5 23zM326 906l75 58l75 -10l-109 -116l-99 126l35 -30z" />
    <glyph glyph-name="Scedilla" unicode="&#x15e;" horiz-adv-x="712" 
d="M337 -158q25 0 37 8t12 22q0 35 -71 35l19 82q-75 3 -141 27t-107.5 73t-41.5 123h74q0 -51 36 -85t91 -50t113 -16q52 0 105.5 13.5t91.5 47t38 88.5q0 51 -32 79t-79.5 39t-128.5 20q-96 11 -154 26.5t-99 56t-41 117.5q0 72 44.5 121t113.5 72t141 23q70 0 137 -22
t110 -67.5t43 -113.5h-80q0 68 -62 99.5t-148 31.5q-52 0 -101.5 -15.5t-82.5 -49t-33 -85.5q0 -48 31 -73.5t76.5 -36t125.5 -19.5q98 -12 157 -27.5t100.5 -57t41.5 -119.5q0 -74 -44 -123t-111.5 -72t-142.5 -26l-5 -46q40 -5 60.5 -24t20.5 -49q0 -39 -31.5 -62
t-84.5 -23q-21 0 -49 5l11 57q21 -4 40 -4z" />
    <glyph glyph-name="Scircumflex" unicode="&#x15c;" horiz-adv-x="712" 
d="M207.5 11q-71.5 23 -117.5 73t-46 128h74q0 -51 36 -85t91 -50t113 -16q52 0 105.5 13.5t91.5 47t38 88.5q0 51 -32 79t-79.5 39t-128.5 20q-96 11 -154 26.5t-99 56t-41 117.5q0 72 44.5 121t113.5 72t141 23q70 0 137 -22t110 -67.5t43 -113.5h-80q0 68 -62 99.5
t-148 31.5q-52 0 -101.5 -15.5t-82.5 -49t-33 -85.5q0 -48 31 -73.5t76.5 -36t125.5 -19.5q98 -12 157 -27.5t100.5 -57t41.5 -119.5q0 -77 -47.5 -127t-119 -72t-148.5 -22q-79 0 -150.5 23zM238 851l150 95l98 -126l-75 11l-64 48l-75 -59z" />
    <glyph glyph-name="uni0218" unicode="&#x218;" horiz-adv-x="712" 
d="M207.5 11q-71.5 23 -117.5 73t-46 128h74q0 -51 36 -85t91 -50t113 -16q52 0 105.5 13.5t91.5 47t38 88.5q0 51 -32 79t-79.5 39t-128.5 20q-96 11 -154 26.5t-99 56t-41 117.5q0 72 44.5 121t113.5 72t141 23q70 0 137 -22t110 -67.5t43 -113.5h-80q0 68 -62 99.5
t-148 31.5q-52 0 -101.5 -15.5t-82.5 -49t-33 -85.5q0 -48 31 -73.5t76.5 -36t125.5 -19.5q98 -12 157 -27.5t100.5 -57t41.5 -119.5q0 -77 -47.5 -127t-119 -72t-148.5 -22q-79 0 -150.5 23zM416 -84v-108q0 -34 -22.5 -60t-79.5 -26v38q56 0 56 42h-69v114h115z" />
    <glyph glyph-name="uni1E62" unicode="&#x1e62;" horiz-adv-x="712" 
d="M207.5 11q-71.5 23 -117.5 73t-46 128h74q0 -51 36 -85t91 -50t113 -16q52 0 105.5 13.5t91.5 47t38 88.5q0 51 -32 79t-79.5 39t-128.5 20q-96 11 -154 26.5t-99 56t-41 117.5q0 72 44.5 121t113.5 72t141 23q70 0 137 -22t110 -67.5t43 -113.5h-80q0 68 -62 99.5
t-148 31.5q-52 0 -101.5 -15.5t-82.5 -49t-33 -85.5q0 -48 31 -73.5t76.5 -36t125.5 -19.5q98 -12 157 -27.5t100.5 -57t41.5 -119.5q0 -77 -47.5 -127t-119 -72t-148.5 -22q-79 0 -150.5 23zM319 -170.5q-16 16.5 -16 39.5t16 39t39 16t39 -16t16 -39t-16 -39.5t-39 -16.5
t-39 16.5z" />
    <glyph glyph-name="uni1E9E" unicode="&#x1e9e;" horiz-adv-x="814" 
d="M89 752h630v-72l-249 -247q156 -15 228 -65.5t72 -150.5q0 -70 -32 -122t-89.5 -79.5t-132.5 -27.5q-69 0 -128.5 23.5t-96.5 73t-37 122.5h73q0 -72 57 -109t136 -37q80 0 125 39.5t45 111.5q0 55 -30 88t-96 50.5t-181 24.5v72l234 230h-449v-677h-79v752z" />
    <glyph glyph-name="T" unicode="T" horiz-adv-x="635" 
d="M12 752h611v-72h-265v-680h-80v680h-266v72z" />
    <glyph glyph-name="Tbar" unicode="&#x166;" horiz-adv-x="635" 
d="M12 752h611v-72h-265v-268h146v-73h-146v-339h-80v339h-147v73h147v268h-266v72z" />
    <glyph glyph-name="Tcaron" unicode="&#x164;" horiz-adv-x="635" 
d="M12 752h611v-72h-265v-680h-80v680h-266v72zM287 906l75 58l75 -10l-109 -116l-99 126l35 -30z" />
    <glyph glyph-name="uni0162" unicode="&#x162;" horiz-adv-x="635" 
d="M12 752h611v-72h-265v-680h-19l-6 -58q40 -5 60.5 -24t20.5 -49q0 -39 -31.5 -62t-84.5 -23q-21 0 -49 5l11 57q21 -4 40 -4q25 0 37 8t12 22q0 35 -71 35l22 93h-22v680h-266v72z" />
    <glyph glyph-name="uni021A" unicode="&#x21a;" horiz-adv-x="635" 
d="M12 752h611v-72h-265v-680h-80v680h-266v72zM378 -84v-108q0 -34 -22.5 -60t-79.5 -26v38q56 0 56 42h-69v114h115z" />
    <glyph glyph-name="uni1E6C" unicode="&#x1e6c;" horiz-adv-x="635" 
d="M12 752h611v-72h-265v-680h-80v680h-266v72zM281 -170.5q-16 16.5 -16 39.5t16 39t39 16t39 -16t16 -39t-16 -39.5t-39 -16.5t-39 16.5z" />
    <glyph glyph-name="U" unicode="U" horiz-adv-x="774" 
d="M163 66.5q-82 78.5 -82 223.5v462h80v-457q0 -118 62.5 -173t161.5 -55q100 0 164 55t64 172v458h80v-463q0 -96 -38.5 -164t-108.5 -102.5t-162 -34.5q-139 0 -221 78.5z" />
    <glyph glyph-name="Uacute" unicode="&#xda;" horiz-adv-x="774" 
d="M163 66.5q-82 78.5 -82 223.5v462h80v-457q0 -118 62.5 -173t161.5 -55q100 0 164 55t64 172v458h80v-463q0 -96 -38.5 -164t-108.5 -102.5t-162 -34.5q-139 0 -221 78.5zM302 872l120 119l53 -52l-120 -121z" />
    <glyph glyph-name="Ubreve" unicode="&#x16c;" horiz-adv-x="774" 
d="M163 66.5q-82 78.5 -82 223.5v462h80v-457q0 -118 62.5 -173t161.5 -55q100 0 164 55t64 172v458h80v-463q0 -96 -38.5 -164t-108.5 -102.5t-162 -34.5q-139 0 -221 78.5zM286.5 865q-37.5 37 -37.5 99h68q0 -33 18.5 -52.5t50.5 -19.5t51 19.5t19 52.5h69q0 -62 -38 -99
t-101 -37q-62 0 -99.5 37z" />
    <glyph glyph-name="uni01D3" unicode="&#x1d3;" horiz-adv-x="774" 
d="M163 66.5q-82 78.5 -82 223.5v462h80v-457q0 -118 62.5 -173t161.5 -55q100 0 164 55t64 172v458h80v-463q0 -96 -38.5 -164t-108.5 -102.5t-162 -34.5q-139 0 -221 78.5zM357 906l75 58l75 -10l-109 -116l-99 126l35 -30z" />
    <glyph glyph-name="Ucircumflex" unicode="&#xdb;" horiz-adv-x="774" 
d="M163 66.5q-82 78.5 -82 223.5v462h80v-457q0 -118 62.5 -173t161.5 -55q100 0 164 55t64 172v458h80v-463q0 -96 -38.5 -164t-108.5 -102.5t-162 -34.5q-139 0 -221 78.5zM269 851l150 95l98 -126l-75 11l-64 48l-75 -59z" />
    <glyph glyph-name="Udieresis" unicode="&#xdc;" horiz-adv-x="774" 
d="M163 66.5q-82 78.5 -82 223.5v462h80v-457q0 -118 62.5 -173t161.5 -55q100 0 164 55t64 172v458h80v-463q0 -96 -38.5 -164t-108.5 -102.5t-162 -34.5q-139 0 -221 78.5zM439 864q-16 16 -16 39t16 39.5t39 16.5t39 -16.5t16 -39.5t-16 -39t-39 -16t-39 16zM257 942.5
q16 16.5 39 16.5t39 -16.5t16 -39.5t-16 -39t-39 -16t-39 16t-16 39t16 39.5z" />
    <glyph glyph-name="Ugrave" unicode="&#xd9;" horiz-adv-x="774" 
d="M163 66.5q-82 78.5 -82 223.5v462h80v-457q0 -118 62.5 -173t161.5 -55q100 0 164 55t64 172v458h80v-463q0 -96 -38.5 -164t-108.5 -102.5t-162 -34.5q-139 0 -221 78.5zM279 939l54 52l119 -119l-53 -54z" />
    <glyph glyph-name="Uhungarumlaut" unicode="&#x170;" horiz-adv-x="774" 
d="M163 66.5q-82 78.5 -82 223.5v462h80v-457q0 -118 62.5 -173t161.5 -55q100 0 164 55t64 172v458h80v-463q0 -96 -38.5 -164t-108.5 -102.5t-162 -34.5q-139 0 -221 78.5zM407 871l118 117l52 -51l-118 -118zM375 988l52 -51l-117 -118l-52 52z" />
    <glyph glyph-name="Umacron" unicode="&#x16a;" horiz-adv-x="774" 
d="M163 66.5q-82 78.5 -82 223.5v462h80v-457q0 -118 62.5 -173t161.5 -55q100 0 164 55t64 172v458h80v-463q0 -96 -38.5 -164t-108.5 -102.5t-162 -34.5q-139 0 -221 78.5zM268 925h240v-67h-240v67z" />
    <glyph glyph-name="Uogonek" unicode="&#x172;" horiz-adv-x="774" 
d="M163 66.5q-82 78.5 -82 223.5v462h80v-457q0 -118 62.5 -173t161.5 -55q100 0 164 55t64 172v458h80v-463q0 -115 -55 -189.5t-153 -99.5q-41 -17 -65 -46t-24 -61q0 -27 19 -44.5t60 -17.5v-59q-58 0 -98 22t-40 78q0 36 17.5 65.5t50.5 50.5h-21q-139 0 -221 78.5z" />
    <glyph glyph-name="Uring" unicode="&#x16e;" horiz-adv-x="774" 
d="M163 66.5q-82 78.5 -82 223.5v462h80v-457q0 -118 62.5 -173t161.5 -55q100 0 164 55t64 172v458h80v-463q0 -96 -38.5 -164t-108.5 -102.5t-162 -34.5q-139 0 -221 78.5zM304.5 864q-33.5 33 -33.5 84t33.5 84.5t83.5 33.5t83 -33.5t33 -84.5t-33 -84t-83 -33t-83.5 33z
M345 901.5q17 -18.5 43 -18.5q25 0 42 18.5t17 46.5t-17 47t-42 19t-42.5 -19t-17.5 -47t17 -46.5z" />
    <glyph glyph-name="Utilde" unicode="&#x168;" horiz-adv-x="774" 
d="M163 66.5q-82 78.5 -82 223.5v462h80v-457q0 -118 62.5 -173t161.5 -55q100 0 164 55t64 172v458h80v-463q0 -96 -38.5 -164t-108.5 -102.5t-162 -34.5q-139 0 -221 78.5zM426.5 872q-19.5 7 -44.5 21q-19 10 -31 15t-25 5q-21 0 -35.5 -11.5t-14.5 -34.5h-74
q0 48 29.5 78.5t80.5 30.5q25 0 44 -7t43 -21q19 -11 31 -16t25 -5q21 0 32 10t11 36h73q0 -52 -27.5 -80t-73.5 -28q-24 0 -43.5 7z" />
    <glyph glyph-name="V" unicode="V" horiz-adv-x="692" 
d="M15 752h85l247 -656l246 656h84l-284 -752h-92z" />
    <glyph glyph-name="W" unicode="W" horiz-adv-x="957" 
d="M23 752h83l165 -646l159 646h97l161 -643l164 643h81l-196 -752h-96l-161 640l-164 -640h-97z" />
    <glyph glyph-name="Wacute" unicode="&#x1e82;" horiz-adv-x="957" 
d="M23 752h83l165 -646l159 646h97l161 -643l164 643h81l-196 -752h-96l-161 640l-164 -640h-97zM393 872l120 119l53 -52l-120 -121z" />
    <glyph glyph-name="Wcircumflex" unicode="&#x174;" horiz-adv-x="957" 
d="M23 752h83l165 -646l159 646h97l161 -643l164 643h81l-196 -752h-96l-161 640l-164 -640h-97zM360 851l150 95l98 -126l-75 11l-64 48l-75 -59z" />
    <glyph glyph-name="Wdieresis" unicode="&#x1e84;" horiz-adv-x="957" 
d="M23 752h83l165 -646l159 646h97l161 -643l164 643h81l-196 -752h-96l-161 640l-164 -640h-97zM530 864q-16 16 -16 39t16 39.5t39 16.5t39 -16.5t16 -39.5t-16 -39t-39 -16t-39 16zM348 942.5q16 16.5 39 16.5t39 -16.5t16 -39.5t-16 -39t-39 -16t-39 16t-16 39t16 39.5z
" />
    <glyph glyph-name="Wgrave" unicode="&#x1e80;" horiz-adv-x="957" 
d="M23 752h83l165 -646l159 646h97l161 -643l164 643h81l-196 -752h-96l-161 640l-164 -640h-97zM370 939l54 52l119 -119l-53 -54z" />
    <glyph glyph-name="X" unicode="X" horiz-adv-x="681" 
d="M289 357l-289 395h92l243 -327l250 327h93l-294 -385l283 -367h-95l-228 301l-234 -301h-96z" />
    <glyph glyph-name="Y" unicode="Y" horiz-adv-x="673" 
d="M298 315l-284 437h92l232 -352l230 352h90l-281 -437v-315h-79v315z" />
    <glyph glyph-name="Yacute" unicode="&#xdd;" horiz-adv-x="673" 
d="M298 315l-284 437h92l232 -352l230 352h90l-281 -437v-315h-79v315zM250 872l120 119l53 -52l-120 -121z" />
    <glyph glyph-name="Ycircumflex" unicode="&#x176;" horiz-adv-x="673" 
d="M298 315l-284 437h92l232 -352l230 352h90l-281 -437v-315h-79v315zM217 851l150 95l98 -126l-75 11l-64 48l-75 -59z" />
    <glyph glyph-name="Ydieresis" unicode="&#x178;" horiz-adv-x="673" 
d="M298 315l-284 437h92l232 -352l230 352h90l-281 -437v-315h-79v315zM388 864q-16 16 -16 39t16 39.5t39 16.5t39 -16.5t16 -39.5t-16 -39t-39 -16t-39 16zM206 942.5q16 16.5 39 16.5t39 -16.5t16 -39.5t-16 -39t-39 -16t-39 16t-16 39t16 39.5z" />
    <glyph glyph-name="Ygrave" unicode="&#x1ef2;" horiz-adv-x="673" 
d="M298 315l-284 437h92l232 -352l230 352h90l-281 -437v-315h-79v315zM227 939l54 52l119 -119l-53 -54z" />
    <glyph glyph-name="uni1EF8" unicode="&#x1ef8;" horiz-adv-x="673" 
d="M298 315l-284 437h92l232 -352l230 352h90l-281 -437v-315h-79v315zM374.5 872q-19.5 7 -44.5 21q-19 10 -31 15t-25 5q-21 0 -35.5 -11.5t-14.5 -34.5h-74q0 48 29.5 78.5t80.5 30.5q25 0 44 -7t43 -21q19 -11 31 -16t25 -5q21 0 32 10t11 36h73q0 -52 -27.5 -80
t-73.5 -28q-24 0 -43.5 7z" />
    <glyph glyph-name="Z" unicode="Z" horiz-adv-x="631" 
d="M31 73l470 605h-464v74h559v-79l-469 -599h469v-74h-565v73z" />
    <glyph glyph-name="Zacute" unicode="&#x179;" horiz-adv-x="631" 
d="M31 73l470 605h-464v74h559v-79l-469 -599h469v-74h-565v73zM228 872l120 119l53 -52l-120 -121z" />
    <glyph glyph-name="Zcaron" unicode="&#x17d;" horiz-adv-x="631" 
d="M31 73l470 605h-464v74h559v-79l-469 -599h469v-74h-565v73zM282 906l75 58l75 -10l-109 -116l-99 126l35 -30z" />
    <glyph glyph-name="Zdotaccent" unicode="&#x17b;" horiz-adv-x="631" 
d="M31 73l470 605h-464v74h559v-79l-469 -599h469v-74h-565v73zM260 964h105v-102h-105v102z" />
    <glyph glyph-name="uni1E92" unicode="&#x1e92;" horiz-adv-x="631" 
d="M31 73l470 605h-464v74h559v-79l-469 -599h469v-74h-565v73zM274 -170.5q-16 16.5 -16 39.5t16 39t39 16t39 -16t16 -39t-16 -39.5t-39 -16.5t-39 16.5z" />
    <glyph glyph-name="A.AE" horiz-adv-x="622" 
d="M490 752h88l-272 -425h248v-73h-295l-163 -254h-85z" />
    <glyph glyph-name="I.IJ" horiz-adv-x="62" 
d="M84 752h81v-465h-81v465z" />
    <glyph glyph-name="uni013B.loclMAH" horiz-adv-x="633" 
d="M89 752h80v-673h451v-79h-531v752zM424 -84v-108q0 -34 -22.5 -60t-79.5 -26v38q56 0 56 42h-69v114h115z" />
    <glyph glyph-name="uni0145.loclMAH" horiz-adv-x="794" 
d="M89 752h85l452 -626v626h80v-752h-84l-453 629v-629h-80v752zM455 -84v-108q0 -34 -22.5 -60t-79.5 -26v38q56 0 56 42h-69v114h115z" />
    <glyph glyph-name="R.ss01" horiz-adv-x="758" 
d="M89 752h352q71 0 126 -28t85 -77t30 -111q0 -65 -38 -116t-103 -74l176 -346h-90l-38 74l-135 252h-282v-326h-83v752zM416 401l-43 84l69 38l61 -110q44 14 70 48.5t26 80.5q0 62 -44.5 99t-119.5 37h-264v-277h245z" />
    <glyph glyph-name="Cdotaccent.ss06" horiz-adv-x="777" 
d="M224.5 35.5q-85.5 47.5 -133 133.5t-47.5 197q0 115 45 205.5t128 141.5t193 51q114 0 197 -50.5t123 -146.5l-73 -27q-68 148 -247 148q-85 0 -150 -40.5t-100.5 -113t-35.5 -164.5q0 -90 37 -159.5t104 -108t154 -38.5q91 0 160 51.5t103 151.5l75 -20
q-42 -126 -130 -192.5t-207 -66.5q-110 0 -195.5 47.5zM363 853.5q-20 20.5 -20 48.5q0 29 20 48.5t49 19.5q28 0 47.5 -20t19.5 -48t-19.5 -48.5t-47.5 -20.5q-29 0 -49 20.5z" />
    <glyph glyph-name="Edotaccent.ss06" horiz-adv-x="671" 
d="M89 752h530v-75h-451v-260h418v-76h-418v-265h460v-76h-539v752zM316 853.5q-20 20.5 -20 48.5q0 29 20 48.5t49 19.5q28 0 47.5 -20t19.5 -48t-19.5 -48.5t-47.5 -20.5q-29 0 -49 20.5z" />
    <glyph glyph-name="Gdotaccent.ss06" horiz-adv-x="794" 
d="M202.5 36q-77.5 47 -118 133.5t-40.5 204.5q0 117 44.5 205t128 136.5t196.5 48.5q111 0 196 -57.5t123 -157.5l-74 -31q-31 77 -96.5 122t-148.5 45q-88 0 -153 -38.5t-100 -108.5t-35 -164q0 -142 71 -225t198 -83q114 0 183.5 69t77.5 192h-364v75h442v-401h-74v135
q-38 -68 -110 -107.5t-161 -39.5q-108 0 -185.5 47zM353 853.5q-20 20.5 -20 48.5q0 29 20 48.5t49 19.5q28 0 47.5 -20t19.5 -48t-19.5 -48.5t-47.5 -20.5q-29 0 -49 20.5z" />
    <glyph glyph-name="Idotaccent.ss06" horiz-adv-x="258" 
d="M89 752h81v-752h-81v752zM81 853.5q-20 20.5 -20 48.5q0 29 20 48.5t49 19.5q28 0 47.5 -20t19.5 -48t-19.5 -48.5t-47.5 -20.5q-29 0 -49 20.5z" />
    <glyph glyph-name="Ldot.ss06" horiz-adv-x="633" 
d="M89 752h80v-673h451v-79h-531v752zM413 372q-16 16 -16 39t15.5 38.5t38.5 15.5q22 0 38 -15.5t16 -38.5t-16 -39t-38 -16t-38 16z" />
    <glyph glyph-name="uni1E44.ss06" horiz-adv-x="794" 
d="M89 752h85l452 -626v626h80v-752h-84l-453 629v-629h-80v752zM353 853.5q-20 20.5 -20 48.5q0 29 20 48.5t49 19.5q28 0 47.5 -20t19.5 -48t-19.5 -48.5t-47.5 -20.5q-29 0 -49 20.5z" />
    <glyph glyph-name="Zdotaccent.ss06" horiz-adv-x="631" 
d="M31 73l470 605h-464v74h559v-79l-469 -599h469v-74h-565v73zM265 853.5q-20 20.5 -20 48.5q0 29 20 48.5t49 19.5q28 0 47.5 -20t19.5 -48t-19.5 -48.5t-47.5 -20.5q-29 0 -49 20.5z" />
    <glyph glyph-name="IJ.ss08" horiz-adv-x="642" 
d="M84 752h81v-465h-81v465zM149.5 42.5q-63.5 54.5 -63.5 152.5l76 12q0 -69 42 -105.5t117 -36.5q76 0 118.5 43.5t42.5 126.5v517h79v-520q0 -114 -64.5 -179t-175.5 -65q-108 0 -171.5 54.5z" />
    <glyph glyph-name="A.ss17" horiz-adv-x="797" 
d="M43 711h714v-714h-714v714zM510 302h-217l109 268zM207 91l64 157h261l63 -157h57l-210 526h-80l-214 -526h59z" />
    <glyph glyph-name="B.ss17" horiz-adv-x="797" 
d="M43 711h714v-714h-714v714zM563.5 133q46.5 42 46.5 111q0 46 -22.5 78.5t-65.5 47.5q33 17 49.5 47t16.5 69q0 63 -39.5 97t-115.5 34h-243v-526h247q80 0 126.5 42zM244 143v198h173q72 0 104.5 -24t32.5 -73q0 -46 -32 -73.5t-92 -27.5h-186zM245 393v172h185
q51 0 77.5 -23t26.5 -62q0 -87 -125 -87h-164z" />
    <glyph glyph-name="C.ss17" horiz-adv-x="797" 
d="M43 711h714v-714h-714v714zM557.5 129.5q61.5 46.5 91.5 134.5l-52 14q-23 -70 -72 -106t-112 -36q-61 0 -108 27t-73 75.5t-26 111.5q0 65 25 115.5t70.5 79t104.5 28.5q125 0 173 -104l51 19q-27 67 -85.5 102.5t-138.5 35.5q-77 0 -135 -35.5t-89.5 -99t-31.5 -144.5
q0 -78 33 -138t93 -93t137 -33q83 0 144.5 46.5z" />
    <glyph glyph-name="D.ss17" horiz-adv-x="797" 
d="M43 711h714v-714h-714v714zM564.5 163.5q65.5 72.5 65.5 193.5q0 122 -65 191t-186 69h-208v-526h208q120 0 185.5 72.5zM227 143v423h137q208 0 208 -208q0 -106 -53.5 -160.5t-154.5 -54.5h-137z" />
    <glyph glyph-name="E.ss17" horiz-adv-x="797" 
d="M43 711h714v-714h-714v714zM589 91v53h-322v186h293v53h-293v182h316v52h-371v-526h377z" />
    <glyph glyph-name="F.ss17" horiz-adv-x="797" 
d="M43 711h714v-714h-714v714zM280 91v249h262v54h-262v170h295v53h-350v-526h55z" />
    <glyph glyph-name="G.ss17" horiz-adv-x="797" 
d="M43 711h714v-714h-714v714zM512.5 109.5q50.5 27.5 76.5 75.5v-94h52v280h-309v-52h254q-5 -86 -54 -134.5t-128 -48.5q-88 0 -137.5 57.5t-51.5 156.5q0 100 54 159.5t148 59.5q58 0 104 -31t68 -85l51 21q-26 70 -85.5 110.5t-137.5 40.5q-79 0 -137.5 -33.5t-89.5 -95
t-31 -143.5q0 -126 63.5 -198.5t177.5 -72.5q62 0 112.5 27.5z" />
    <glyph glyph-name="H.ss17" horiz-adv-x="797" 
d="M43 711h714v-714h-714v714zM242 91v243h315v-243h59v526h-59v-228h-315v228h-56v-526h56z" />
    <glyph glyph-name="I.ss17" horiz-adv-x="797" 
d="M43 711h714v-714h-714v714zM429 91v526h-57v-526h57z" />
    <glyph glyph-name="J.ss17" horiz-adv-x="797" 
d="M43 711h714v-714h-714v714zM520.5 132q45.5 45 45.5 125v364h-55v-362q0 -58 -30 -88.5t-83 -30.5q-52 0 -81.5 25.5t-29.5 74.5l-53 -9q0 -69 44 -106.5t120 -37.5q77 0 122.5 45z" />
    <glyph glyph-name="K.ss17" horiz-adv-x="797" 
d="M43 711h714v-714h-714v714zM231 91v183l114 103l211 -286h69l-240 325l221 201h-81l-294 -263v263h-55v-526h55z" />
    <glyph glyph-name="L.ss17" horiz-adv-x="797" 
d="M43 711h714v-714h-714v714zM586 91v55h-316v471h-56v-526h372z" />
    <glyph glyph-name="M.ss17" horiz-adv-x="802" 
d="M43 711h714v-714h-714v714zM192 91v438l182 -438h56l179 439v-439h55v526h-76l-186 -457l-189 457h-77v-526h56z" />
    <glyph glyph-name="N.ss17" horiz-adv-x="797" 
d="M43 711h714v-714h-714v714zM241 91v440l317 -440h59v526h-56v-438l-317 438h-59v-526h56z" />
    <glyph glyph-name="O.ss17" horiz-adv-x="797" 
d="M43 711h714v-714h-714v714zM534.5 113.5q58.5 35.5 91.5 98t33 140.5t-32 141.5t-90.5 100t-134.5 36.5q-78 0 -137 -36.5t-91.5 -100t-32.5 -141.5t33.5 -140.5t93 -98t134.5 -35.5q74 0 132.5 35.5zM225 468q25 51 70.5 79.5t106.5 28.5q59 0 104.5 -28.5t70.5 -79.5
t25 -115q0 -65 -26 -115.5t-71.5 -78.5t-102.5 -28q-58 0 -104 28t-72 78.5t-26 115.5q0 64 25 115z" />
    <glyph glyph-name="P.ss17" horiz-adv-x="797" 
d="M43 711h714v-714h-714v714zM257 365v199h173q51 0 81.5 -27t30.5 -72q0 -44 -31 -72t-81 -28h-173zM257 91v221h170q77 0 123 43t46 111q0 67 -45.5 109t-123.5 42h-224v-526h54z" />
    <glyph glyph-name="Q.ss17" horiz-adv-x="797" 
d="M43 711h714v-714h-714v714zM527 131l47 -75l43 27l-48 78q43 37 66.5 92t23.5 121q0 78 -32 141t-90.5 100t-135.5 37t-136 -36.5t-91.5 -100t-32.5 -141.5t33.5 -140.5t92.5 -98t134 -35.5q70 0 126 31zM224.5 490q24.5 51 70.5 79.5t106 28.5t105.5 -28.5t70 -79.5
t24.5 -115q0 -52 -16 -94t-46 -72l-127 206l-44 -27l131 -210q-45 -25 -98 -25q-58 0 -103.5 28t-71.5 78.5t-26 115.5q0 64 24.5 115z" />
    <glyph glyph-name="R.ss17" horiz-adv-x="797" 
d="M43 711h714v-714h-714v714zM237 91v230h206l114 -230h61l-124 243q44 18 69.5 53t25.5 79q0 69 -42.5 110.5t-124.5 40.5h-239v-526h54zM237 374v194h184q57 0 85.5 -27.5t28.5 -71.5q0 -43 -31.5 -69t-82.5 -26h-184z" />
    <glyph glyph-name="S.ss17" horiz-adv-x="797" 
d="M43 711h714v-714h-714v714zM504 98.5q50 15.5 83.5 50t33.5 88.5q0 55 -29.5 84t-71 40t-109.5 19q-56 7 -88 14t-53.5 25t-21.5 51q0 53 47 79t105 26q60 0 103.5 -22t43.5 -69h56q0 47 -30 79t-77 47.5t-96 15.5q-51 0 -99 -16t-79 -50.5t-31 -84.5q0 -54 28.5 -82.5
t70 -39.5t107.5 -18q59 -7 91.5 -15t54.5 -27t22 -55q0 -56 -52 -80t-113 -24q-65 0 -116.5 26.5t-51.5 78.5h-52q0 -54 32.5 -89t82.5 -51t105 -16q54 0 104 15.5z" />
    <glyph glyph-name="T.ss17" horiz-adv-x="797" 
d="M43 711h714v-714h-714v714zM372 567v-476h56v476h186v50h-428v-50h186z" />
    <glyph glyph-name="U.ss17" horiz-adv-x="797" 
d="M43 711h714v-714h-714v714zM555 141.5q59 54.5 59 155.5v324h-56v-320q0 -82 -45 -120.5t-115 -38.5q-69 0 -112.5 38.5t-43.5 120.5v320h-56v-323q0 -102 57 -156.5t155 -54.5t157 54.5z" />
    <glyph glyph-name="V.ss17" horiz-adv-x="797" 
d="M43 711h714v-714h-714v714zM433 91l199 526h-59l-172 -459l-173 459h-60l200 -526h65z" />
    <glyph glyph-name="W.ss17" horiz-adv-x="797" 
d="M43 711h714v-714h-714v714zM287 91l114 448l113 -448h67l137 526h-56l-115 -450l-113 450h-68l-111 -452l-115 452h-59l138 -526h68z" />
    <glyph glyph-name="X.ss17" horiz-adv-x="780" 
d="M26 711h714v-714h-714v714zM222 91l164 211l159 -211h67l-198 257l206 269h-66l-175 -229l-170 229h-64l202 -276l-192 -250h67z" />
    <glyph glyph-name="Y.ss17" horiz-adv-x="780" 
d="M26 711h714v-714h-714v714zM412 91v220l196 306h-63l-161 -246l-162 246h-65l199 -306v-220h56z" />
    <glyph glyph-name="Z.ss17" horiz-adv-x="794" 
d="M40 711h714v-714h-714v714zM594 91v52h-328l328 419v55h-391v-51h325l-329 -424v-51h395z" />
    <glyph glyph-name="Iacute_J_acutecomb.ss08" horiz-adv-x="642" 
d="M84 752h81v-465h-81v465zM149.5 42.5q-63.5 54.5 -63.5 152.5l76 12q0 -69 42 -105.5t117 -36.5q76 0 118.5 43.5t42.5 126.5v517h79v-520q0 -114 -64.5 -179t-175.5 -65q-108 0 -171.5 54.5zM66 872l120 119l53 -52l-120 -121zM470 872l120 119l53 -52l-120 -121z" />
    <glyph glyph-name="a" unicode="a" horiz-adv-x="571" 
d="M101 28.5q-50 40.5 -50 110.5q0 115 136 154q22 6 66 16q59 15 91.5 25.5t54.5 27.5t22 42q0 30 -33.5 53t-94.5 23q-56 0 -95.5 -28t-53.5 -67l-74 25q24 71 83 105t142 34q99 0 154 -48t55 -139v-362h-76v61q-36 -36 -87.5 -54.5t-97.5 -18.5q-92 0 -142 40.5z
M349 80.5q51 22.5 80 66.5v156q-41 -24 -80 -37t-90 -24q-64 -14 -97 -36t-33 -64q1 -84 111 -84q58 0 109 22.5z" />
    <glyph glyph-name="aacute" unicode="&#xe1;" horiz-adv-x="571" 
d="M101 28.5q-50 40.5 -50 110.5q0 115 136 154q22 6 66 16q59 15 91.5 25.5t54.5 27.5t22 42q0 30 -33.5 53t-94.5 23q-56 0 -95.5 -28t-53.5 -67l-74 25q24 71 83 105t142 34q99 0 154 -48t55 -139v-362h-76v61q-36 -36 -87.5 -54.5t-97.5 -18.5q-92 0 -142 40.5z
M349 80.5q51 22.5 80 66.5v156q-41 -24 -80 -37t-90 -24q-64 -14 -97 -36t-33 -64q1 -84 111 -84q58 0 109 22.5zM213 660l120 119l53 -52l-120 -121z" />
    <glyph glyph-name="abreve" unicode="&#x103;" horiz-adv-x="571" 
d="M101 28.5q-50 40.5 -50 110.5q0 115 136 154q22 6 66 16q59 15 91.5 25.5t54.5 27.5t22 42q0 30 -33.5 53t-94.5 23q-56 0 -95.5 -28t-53.5 -67l-74 25q24 71 83 105t142 34q99 0 154 -48t55 -139v-362h-76v61q-36 -36 -87.5 -54.5t-97.5 -18.5q-92 0 -142 40.5z
M349 80.5q51 22.5 80 66.5v156q-41 -24 -80 -37t-90 -24q-64 -14 -97 -36t-33 -64q1 -84 111 -84q58 0 109 22.5zM196.5 653q-37.5 37 -37.5 99h68q0 -33 18.5 -52.5t50.5 -19.5t51 19.5t19 52.5h69q0 -62 -38 -99t-101 -37q-62 0 -99.5 37z" />
    <glyph glyph-name="uni01CE" unicode="&#x1ce;" horiz-adv-x="571" 
d="M101 28.5q-50 40.5 -50 110.5q0 115 136 154q22 6 66 16q59 15 91.5 25.5t54.5 27.5t22 42q0 30 -33.5 53t-94.5 23q-56 0 -95.5 -28t-53.5 -67l-74 25q24 71 83 105t142 34q99 0 154 -48t55 -139v-362h-76v61q-36 -36 -87.5 -54.5t-97.5 -18.5q-92 0 -142 40.5z
M349 80.5q51 22.5 80 66.5v156q-41 -24 -80 -37t-90 -24q-64 -14 -97 -36t-33 -64q1 -84 111 -84q58 0 109 22.5zM267 694l75 58l75 -10l-109 -116l-99 126l35 -30z" />
    <glyph glyph-name="acircumflex" unicode="&#xe2;" horiz-adv-x="571" 
d="M101 28.5q-50 40.5 -50 110.5q0 115 136 154q22 6 66 16q59 15 91.5 25.5t54.5 27.5t22 42q0 30 -33.5 53t-94.5 23q-56 0 -95.5 -28t-53.5 -67l-74 25q24 71 83 105t142 34q99 0 154 -48t55 -139v-362h-76v61q-36 -36 -87.5 -54.5t-97.5 -18.5q-92 0 -142 40.5z
M349 80.5q51 22.5 80 66.5v156q-41 -24 -80 -37t-90 -24q-64 -14 -97 -36t-33 -64q1 -84 111 -84q58 0 109 22.5zM179 639l150 95l98 -126l-75 11l-64 48l-75 -59z" />
    <glyph glyph-name="adieresis" unicode="&#xe4;" horiz-adv-x="571" 
d="M101 28.5q-50 40.5 -50 110.5q0 115 136 154q22 6 66 16q59 15 91.5 25.5t54.5 27.5t22 42q0 30 -33.5 53t-94.5 23q-56 0 -95.5 -28t-53.5 -67l-74 25q24 71 83 105t142 34q99 0 154 -48t55 -139v-362h-76v61q-36 -36 -87.5 -54.5t-97.5 -18.5q-92 0 -142 40.5z
M349 80.5q51 22.5 80 66.5v156q-41 -24 -80 -37t-90 -24q-64 -14 -97 -36t-33 -64q1 -84 111 -84q58 0 109 22.5zM350 652q-16 16 -16 39t16 39.5t39 16.5t39 -16.5t16 -39.5t-16 -39t-39 -16t-39 16zM168 730.5q16 16.5 39 16.5t39 -16.5t16 -39.5t-16 -39t-39 -16t-39 16
t-16 39t16 39.5z" />
    <glyph glyph-name="uni1EA1" unicode="&#x1ea1;" horiz-adv-x="571" 
d="M101 28.5q-50 40.5 -50 110.5q0 115 136 154q22 6 66 16q59 15 91.5 25.5t54.5 27.5t22 42q0 30 -33.5 53t-94.5 23q-56 0 -95.5 -28t-53.5 -67l-74 25q24 71 83 105t142 34q99 0 154 -48t55 -139v-362h-76v61q-36 -36 -87.5 -54.5t-97.5 -18.5q-92 0 -142 40.5z
M349 80.5q51 22.5 80 66.5v156q-41 -24 -80 -37t-90 -24q-64 -14 -97 -36t-33 -64q1 -84 111 -84q58 0 109 22.5zM249 -170.5q-16 16.5 -16 39.5t16 39t39 16t39 -16t16 -39t-16 -39.5t-39 -16.5t-39 16.5z" />
    <glyph glyph-name="agrave" unicode="&#xe0;" horiz-adv-x="571" 
d="M101 28.5q-50 40.5 -50 110.5q0 115 136 154q22 6 66 16q59 15 91.5 25.5t54.5 27.5t22 42q0 30 -33.5 53t-94.5 23q-56 0 -95.5 -28t-53.5 -67l-74 25q24 71 83 105t142 34q99 0 154 -48t55 -139v-362h-76v61q-36 -36 -87.5 -54.5t-97.5 -18.5q-92 0 -142 40.5z
M349 80.5q51 22.5 80 66.5v156q-41 -24 -80 -37t-90 -24q-64 -14 -97 -36t-33 -64q1 -84 111 -84q58 0 109 22.5zM190 727l54 52l119 -119l-53 -54z" />
    <glyph glyph-name="amacron" unicode="&#x101;" horiz-adv-x="571" 
d="M101 28.5q-50 40.5 -50 110.5q0 115 136 154q22 6 66 16q59 15 91.5 25.5t54.5 27.5t22 42q0 30 -33.5 53t-94.5 23q-56 0 -95.5 -28t-53.5 -67l-74 25q24 71 83 105t142 34q99 0 154 -48t55 -139v-362h-76v61q-36 -36 -87.5 -54.5t-97.5 -18.5q-92 0 -142 40.5z
M349 80.5q51 22.5 80 66.5v156q-41 -24 -80 -37t-90 -24q-64 -14 -97 -36t-33 -64q1 -84 111 -84q58 0 109 22.5zM178 713h240v-67h-240v67z" />
    <glyph glyph-name="aogonek" unicode="&#x105;" horiz-adv-x="571" 
d="M101 28.5q-50 40.5 -50 110.5q0 115 136 154q22 6 66 16q59 15 91.5 25.5t54.5 27.5t22 42q0 30 -33.5 53t-94.5 23q-56 0 -95.5 -28t-53.5 -67l-74 25q24 71 83 105t142 34q99 0 154 -48t55 -139v-362h-36q-39 -17 -61.5 -45.5t-22.5 -59.5q0 -27 19 -44.5t60 -17.5v-59
q-58 0 -98 22t-40 78q0 44 27 79t76 56v52q-36 -36 -87.5 -54.5t-97.5 -18.5q-92 0 -142 40.5zM349 80.5q51 22.5 80 66.5v156q-41 -24 -80 -37t-90 -24q-64 -14 -97 -36t-33 -64q1 -84 111 -84q58 0 109 22.5z" />
    <glyph glyph-name="aring" unicode="&#xe5;" horiz-adv-x="571" 
d="M101 28.5q-50 40.5 -50 110.5q0 115 136 154q22 6 66 16q59 15 91.5 25.5t54.5 27.5t22 42q0 30 -33.5 53t-94.5 23q-56 0 -95.5 -28t-53.5 -67l-74 25q24 71 83 105t142 34q99 0 154 -48t55 -139v-362h-76v61q-36 -36 -87.5 -54.5t-97.5 -18.5q-92 0 -142 40.5z
M349 80.5q51 22.5 80 66.5v156q-41 -24 -80 -37t-90 -24q-64 -14 -97 -36t-33 -64q1 -84 111 -84q58 0 109 22.5zM215.5 652q-33.5 33 -33.5 84t33.5 84.5t83.5 33.5t83 -33.5t33 -84.5t-33 -84t-83 -33t-83.5 33zM256 689.5q17 -18.5 43 -18.5q25 0 42 18.5t17 46.5t-17 47
t-42 19t-42.5 -19t-17.5 -47t17 -46.5z" />
    <glyph glyph-name="atilde" unicode="&#xe3;" horiz-adv-x="571" 
d="M101 28.5q-50 40.5 -50 110.5q0 115 136 154q22 6 66 16q59 15 91.5 25.5t54.5 27.5t22 42q0 30 -33.5 53t-94.5 23q-56 0 -95.5 -28t-53.5 -67l-74 25q24 71 83 105t142 34q99 0 154 -48t55 -139v-362h-76v61q-36 -36 -87.5 -54.5t-97.5 -18.5q-92 0 -142 40.5z
M349 80.5q51 22.5 80 66.5v156q-41 -24 -80 -37t-90 -24q-64 -14 -97 -36t-33 -64q1 -84 111 -84q58 0 109 22.5zM336.5 660q-19.5 7 -44.5 21q-19 10 -31 15t-25 5q-21 0 -35.5 -11.5t-14.5 -34.5h-74q0 48 29.5 78.5t80.5 30.5q25 0 44 -7t43 -21q19 -11 31 -16t25 -5
q21 0 32 10t11 36h73q0 -52 -27.5 -80t-73.5 -28q-24 0 -43.5 7z" />
    <glyph glyph-name="ae" unicode="&#xe6;" horiz-adv-x="975" 
d="M102 30q-51 42 -51 110q0 112 136 154l75 22q84 23 122 41t38 47q0 30 -33 51t-94 21q-56 0 -96 -26.5t-54 -64.5l-73 25q24 71 83 105t141 34q70 0 118 -24t70 -72q36 46 88.5 71.5t115.5 25.5q67 0 124 -30t93 -99t36 -180h-435q0 -52 25 -94.5t67 -66.5t91 -24
q54 0 98.5 28t68.5 75l69 -24q-32 -67 -95.5 -107t-140.5 -40q-66 0 -121 29t-92 80q-48 -48 -109 -78.5t-132 -30.5q-82 0 -133 42zM360 86.5q54 28.5 83 73.5q-12 31 -15.5 64.5t-3.5 74.5q-33 -17 -68 -29t-83 -25q-52 -15 -80.5 -26t-46.5 -29t-18 -47q0 -40 29.5 -62.5
t77.5 -22.5q71 0 125 28.5zM831.5 403q-24.5 38 -63.5 57.5t-80 19.5q-72 0 -122.5 -45.5t-60.5 -122.5h351q0 53 -24.5 91z" />
    <glyph glyph-name="b" unicode="b" horiz-adv-x="609" 
d="M223.5 13.5q-49.5 24.5 -69.5 64.5v-78h-77v752h77v-294q21 41 70 67.5t105 26.5q70 0 124 -35t84.5 -98t30.5 -143q0 -84 -30.5 -149t-84.5 -101.5t-123 -36.5q-57 0 -106.5 24.5zM177.5 163q21.5 -47 59.5 -73.5t87 -26.5q48 0 86 27t59 74.5t21 108.5q0 59 -21 106
t-59 73t-87 26q-48 0 -86 -26.5t-59.5 -73.5t-21.5 -107q0 -61 21.5 -108z" />
    <glyph glyph-name="uni1E05" unicode="&#x1e05;" horiz-adv-x="609" 
d="M223.5 13.5q-49.5 24.5 -69.5 64.5v-78h-77v752h77v-294q21 41 70 67.5t105 26.5q70 0 124 -35t84.5 -98t30.5 -143q0 -84 -30.5 -149t-84.5 -101.5t-123 -36.5q-57 0 -106.5 24.5zM177.5 163q21.5 -47 59.5 -73.5t87 -26.5q48 0 86 27t59 74.5t21 108.5q0 59 -21 106
t-59 73t-87 26q-48 0 -86 -26.5t-59.5 -73.5t-21.5 -107q0 -61 21.5 -108zM293 -170.5q-16 16.5 -16 39.5t16 39t39 16t39 -16t16 -39t-16 -39.5t-39 -16.5t-39 16.5z" />
    <glyph glyph-name="c" unicode="c" horiz-adv-x="583" 
d="M165 22.5q-60 34.5 -92.5 98.5t-32.5 149t32.5 148.5t92.5 98t140 34.5t145.5 -44t94.5 -117l-73 -20q-22 50 -67.5 80t-99.5 30q-86 0 -137 -57t-51 -153q0 -97 51 -154.5t137 -57.5q61 0 108 36t68 98l74 -17q-26 -86 -93.5 -136.5t-156.5 -50.5q-80 0 -140 34.5z" />
    <glyph glyph-name="cacute" unicode="&#x107;" horiz-adv-x="583" 
d="M165 22.5q-60 34.5 -92.5 98.5t-32.5 149t32.5 148.5t92.5 98t140 34.5t145.5 -44t94.5 -117l-73 -20q-22 50 -67.5 80t-99.5 30q-86 0 -137 -57t-51 -153q0 -97 51 -154.5t137 -57.5q61 0 108 36t68 98l74 -17q-26 -86 -93.5 -136.5t-156.5 -50.5q-80 0 -140 34.5z
M219 660l120 119l53 -52l-120 -121z" />
    <glyph glyph-name="ccaron" unicode="&#x10d;" horiz-adv-x="583" 
d="M165 22.5q-60 34.5 -92.5 98.5t-32.5 149t32.5 148.5t92.5 98t140 34.5t145.5 -44t94.5 -117l-73 -20q-22 50 -67.5 80t-99.5 30q-86 0 -137 -57t-51 -153q0 -97 51 -154.5t137 -57.5q61 0 108 36t68 98l74 -17q-26 -86 -93.5 -136.5t-156.5 -50.5q-80 0 -140 34.5z
M273 694l75 58l75 -10l-109 -116l-99 126l35 -30z" />
    <glyph glyph-name="ccedilla" unicode="&#xe7;" horiz-adv-x="583" 
d="M284 -158q25 0 37 8t12 22q0 35 -71 35l19 82q-111 8 -176 83t-65 198q0 85 32.5 148.5t92.5 98t140 34.5t145.5 -44t94.5 -117l-73 -20q-22 50 -67.5 80t-99.5 30q-86 0 -137 -57t-51 -153q0 -97 51 -154.5t137 -57.5q61 0 108 36t68 98l74 -17q-25 -82 -87.5 -131.5
t-145.5 -54.5l-5 -47q40 -5 60.5 -24t20.5 -49q0 -39 -31.5 -62t-84.5 -23q-21 0 -49 5l11 57q21 -4 40 -4z" />
    <glyph glyph-name="ccircumflex" unicode="&#x109;" horiz-adv-x="583" 
d="M165 22.5q-60 34.5 -92.5 98.5t-32.5 149t32.5 148.5t92.5 98t140 34.5t145.5 -44t94.5 -117l-73 -20q-22 50 -67.5 80t-99.5 30q-86 0 -137 -57t-51 -153q0 -97 51 -154.5t137 -57.5q61 0 108 36t68 98l74 -17q-26 -86 -93.5 -136.5t-156.5 -50.5q-80 0 -140 34.5z
M185 639l150 95l98 -126l-75 11l-64 48l-75 -59z" />
    <glyph glyph-name="cdotaccent" unicode="&#x10b;" horiz-adv-x="583" 
d="M165 22.5q-60 34.5 -92.5 98.5t-32.5 149t32.5 148.5t92.5 98t140 34.5t145.5 -44t94.5 -117l-73 -20q-22 50 -67.5 80t-99.5 30q-86 0 -137 -57t-51 -153q0 -97 51 -154.5t137 -57.5q61 0 108 36t68 98l74 -17q-26 -86 -93.5 -136.5t-156.5 -50.5q-80 0 -140 34.5z
M251 752h105v-102h-105v102z" />
    <glyph glyph-name="d" unicode="d" horiz-adv-x="609" 
d="M156 25.5q-54 36.5 -84.5 101.5t-30.5 149q0 80 30.5 143t84.5 98t124 35q56 0 105 -26.5t70 -67.5v294h77v-752h-77v78q-20 -40 -69.5 -64.5t-106.5 -24.5q-69 0 -123 36.5zM431.5 378q-21.5 47 -59.5 73.5t-86 26.5q-49 0 -87 -26t-59 -73t-21 -106q0 -61 21 -108.5
t59 -74.5t86 -27q49 0 87 26.5t59.5 73.5t21.5 108q0 60 -21.5 107z" />
    <glyph glyph-name="dcaron" unicode="&#x10f;" horiz-adv-x="609" 
d="M156 25.5q-54 36.5 -84.5 101.5t-30.5 149q0 80 30.5 143t84.5 98t124 35q56 0 105 -26.5t70 -67.5v294h77v-752h-77v78q-20 -40 -69.5 -64.5t-106.5 -24.5q-69 0 -123 36.5zM431.5 378q-21.5 47 -59.5 73.5t-86 26.5q-49 0 -87 -26t-59 -73t-21 -106q0 -61 21 -108.5
t59 -74.5t86 -27q49 0 87 26.5t59.5 73.5t21.5 108q0 60 -21.5 107zM647 752v-102q0 -31 -16.5 -56.5t-59.5 -25.5v34q17 0 28 9.5t11 38.5h-39v102h76z" />
    <glyph glyph-name="dcroat" unicode="&#x111;" horiz-adv-x="609" 
d="M156 25.5q-54 36.5 -84.5 101.5t-30.5 149q0 80 30.5 143t84.5 98t124 35q56 0 105 -26.5t70 -67.5v162h-95v53h95v79h77v-79h58v-53h-58v-620h-77v78q-20 -40 -69.5 -64.5t-106.5 -24.5q-69 0 -123 36.5zM431.5 378q-21.5 47 -59.5 73.5t-86 26.5q-49 0 -87 -26t-59 -73
t-21 -106q0 -61 21 -108.5t59 -74.5t86 -27q49 0 87 26.5t59.5 73.5t21.5 108q0 60 -21.5 107z" />
    <glyph glyph-name="uni1E0D" unicode="&#x1e0d;" horiz-adv-x="609" 
d="M156 25.5q-54 36.5 -84.5 101.5t-30.5 149q0 80 30.5 143t84.5 98t124 35q56 0 105 -26.5t70 -67.5v294h77v-752h-77v78q-20 -40 -69.5 -64.5t-106.5 -24.5q-69 0 -123 36.5zM431.5 378q-21.5 47 -59.5 73.5t-86 26.5q-49 0 -87 -26t-59 -73t-21 -106q0 -61 21 -108.5
t59 -74.5t86 -27q49 0 87 26.5t59.5 73.5t21.5 108q0 60 -21.5 107zM236 -170.5q-16 16.5 -16 39.5t16 39t39 16t39 -16t16 -39t-16 -39.5t-39 -16.5t-39 16.5z" />
    <glyph glyph-name="eth" unicode="&#xf0;" horiz-adv-x="609" 
d="M157.5 21.5q-56.5 33.5 -87 96t-30.5 146.5t29 146.5t82.5 96t125.5 33.5q63 0 112 -30.5t70 -82.5q0 62 -13.5 115.5t-35.5 82.5l-37 -44h-84l71 85q-26 13 -70 21t-93 8v70q65 0 122.5 -11t90.5 -30l23 28h83l-57 -69q34 -34 53.5 -83.5t19.5 -101.5v-240
q0 -82 -29.5 -143t-84.5 -94t-128 -33q-76 0 -132.5 33.5zM160.5 115q45.5 -54 123.5 -54q79 0 125.5 53.5t46.5 145.5q0 96 -46.5 152t-126.5 56q-77 0 -122.5 -56t-45.5 -151q0 -92 45.5 -146z" />
    <glyph glyph-name="e" unicode="e" horiz-adv-x="595" 
d="M169.5 24.5q-60.5 36.5 -95 100.5t-34.5 143q0 85 33 149.5t91.5 99.5t133.5 35q119 0 190.5 -77.5t71.5 -233.5h-442q0 -52 25.5 -94.5t68.5 -66.5t93 -24q58 0 100.5 27.5t67.5 75.5l68 -24q-32 -68 -93.5 -107.5t-142.5 -39.5q-75 0 -135.5 36.5zM459 394.5
q-20 39.5 -61 64.5t-100 25q-56 0 -96.5 -25.5t-62 -65.5t-21.5 -81h361q0 43 -20 82.5z" />
    <glyph glyph-name="eacute" unicode="&#xe9;" horiz-adv-x="595" 
d="M169.5 24.5q-60.5 36.5 -95 100.5t-34.5 143q0 85 33 149.5t91.5 99.5t133.5 35q119 0 190.5 -77.5t71.5 -233.5h-442q0 -52 25.5 -94.5t68.5 -66.5t93 -24q58 0 100.5 27.5t67.5 75.5l68 -24q-32 -68 -93.5 -107.5t-142.5 -39.5q-75 0 -135.5 36.5zM459 394.5
q-20 39.5 -61 64.5t-100 25q-56 0 -96.5 -25.5t-62 -65.5t-21.5 -81h361q0 43 -20 82.5zM210 660l120 119l53 -52l-120 -121z" />
    <glyph glyph-name="ebreve" unicode="&#x115;" horiz-adv-x="595" 
d="M169.5 24.5q-60.5 36.5 -95 100.5t-34.5 143q0 85 33 149.5t91.5 99.5t133.5 35q119 0 190.5 -77.5t71.5 -233.5h-442q0 -52 25.5 -94.5t68.5 -66.5t93 -24q58 0 100.5 27.5t67.5 75.5l68 -24q-32 -68 -93.5 -107.5t-142.5 -39.5q-75 0 -135.5 36.5zM459 394.5
q-20 39.5 -61 64.5t-100 25q-56 0 -96.5 -25.5t-62 -65.5t-21.5 -81h361q0 43 -20 82.5zM194.5 653q-37.5 37 -37.5 99h68q0 -33 18.5 -52.5t50.5 -19.5t51 19.5t19 52.5h69q0 -62 -38 -99t-101 -37q-62 0 -99.5 37z" />
    <glyph glyph-name="ecaron" unicode="&#x11b;" horiz-adv-x="595" 
d="M169.5 24.5q-60.5 36.5 -95 100.5t-34.5 143q0 85 33 149.5t91.5 99.5t133.5 35q119 0 190.5 -77.5t71.5 -233.5h-442q0 -52 25.5 -94.5t68.5 -66.5t93 -24q58 0 100.5 27.5t67.5 75.5l68 -24q-32 -68 -93.5 -107.5t-142.5 -39.5q-75 0 -135.5 36.5zM459 394.5
q-20 39.5 -61 64.5t-100 25q-56 0 -96.5 -25.5t-62 -65.5t-21.5 -81h361q0 43 -20 82.5zM265 694l75 58l75 -10l-109 -116l-99 126l35 -30z" />
    <glyph glyph-name="uni0229" unicode="&#x229;" horiz-adv-x="595" 
d="M459 394.5q-20 39.5 -61 64.5t-100 25q-56 0 -96.5 -25.5t-62 -65.5t-21.5 -81h361q0 43 -20 82.5zM284 -158q25 0 37 8t12 22q0 35 -71 35l19 82q-69 6 -124 43.5t-86 99t-31 136.5q0 85 33 149.5t91.5 99.5t133.5 35q119 0 190.5 -77.5t71.5 -233.5h-442
q0 -52 25.5 -94.5t68.5 -66.5t93 -24q58 0 100.5 27.5t67.5 75.5l68 -24q-31 -65 -87.5 -104t-131.5 -43l-5 -46q40 -5 60.5 -24t20.5 -49q0 -39 -31.5 -62t-84.5 -23q-21 0 -49 5l11 57q21 -4 40 -4z" />
    <glyph glyph-name="ecircumflex" unicode="&#xea;" horiz-adv-x="595" 
d="M169.5 24.5q-60.5 36.5 -95 100.5t-34.5 143q0 85 33 149.5t91.5 99.5t133.5 35q119 0 190.5 -77.5t71.5 -233.5h-442q0 -52 25.5 -94.5t68.5 -66.5t93 -24q58 0 100.5 27.5t67.5 75.5l68 -24q-32 -68 -93.5 -107.5t-142.5 -39.5q-75 0 -135.5 36.5zM459 394.5
q-20 39.5 -61 64.5t-100 25q-56 0 -96.5 -25.5t-62 -65.5t-21.5 -81h361q0 43 -20 82.5zM177 639l150 95l98 -126l-75 11l-64 48l-75 -59z" />
    <glyph glyph-name="edieresis" unicode="&#xeb;" horiz-adv-x="595" 
d="M169.5 24.5q-60.5 36.5 -95 100.5t-34.5 143q0 85 33 149.5t91.5 99.5t133.5 35q119 0 190.5 -77.5t71.5 -233.5h-442q0 -52 25.5 -94.5t68.5 -66.5t93 -24q58 0 100.5 27.5t67.5 75.5l68 -24q-32 -68 -93.5 -107.5t-142.5 -39.5q-75 0 -135.5 36.5zM459 394.5
q-20 39.5 -61 64.5t-100 25q-56 0 -96.5 -25.5t-62 -65.5t-21.5 -81h361q0 43 -20 82.5zM347 652q-16 16 -16 39t16 39.5t39 16.5t39 -16.5t16 -39.5t-16 -39t-39 -16t-39 16zM165 730.5q16 16.5 39 16.5t39 -16.5t16 -39.5t-16 -39t-39 -16t-39 16t-16 39t16 39.5z" />
    <glyph glyph-name="edotaccent" unicode="&#x117;" horiz-adv-x="595" 
d="M169.5 24.5q-60.5 36.5 -95 100.5t-34.5 143q0 85 33 149.5t91.5 99.5t133.5 35q119 0 190.5 -77.5t71.5 -233.5h-442q0 -52 25.5 -94.5t68.5 -66.5t93 -24q58 0 100.5 27.5t67.5 75.5l68 -24q-32 -68 -93.5 -107.5t-142.5 -39.5q-75 0 -135.5 36.5zM459 394.5
q-20 39.5 -61 64.5t-100 25q-56 0 -96.5 -25.5t-62 -65.5t-21.5 -81h361q0 43 -20 82.5zM243 752h105v-102h-105v102z" />
    <glyph glyph-name="uni1EB9" unicode="&#x1eb9;" horiz-adv-x="595" 
d="M169.5 24.5q-60.5 36.5 -95 100.5t-34.5 143q0 85 33 149.5t91.5 99.5t133.5 35q119 0 190.5 -77.5t71.5 -233.5h-442q0 -52 25.5 -94.5t68.5 -66.5t93 -24q58 0 100.5 27.5t67.5 75.5l68 -24q-32 -68 -93.5 -107.5t-142.5 -39.5q-75 0 -135.5 36.5zM459 394.5
q-20 39.5 -61 64.5t-100 25q-56 0 -96.5 -25.5t-62 -65.5t-21.5 -81h361q0 43 -20 82.5zM265 -170.5q-16 16.5 -16 39.5t16 39t39 16t39 -16t16 -39t-16 -39.5t-39 -16.5t-39 16.5z" />
    <glyph glyph-name="egrave" unicode="&#xe8;" horiz-adv-x="595" 
d="M169.5 24.5q-60.5 36.5 -95 100.5t-34.5 143q0 85 33 149.5t91.5 99.5t133.5 35q119 0 190.5 -77.5t71.5 -233.5h-442q0 -52 25.5 -94.5t68.5 -66.5t93 -24q58 0 100.5 27.5t67.5 75.5l68 -24q-32 -68 -93.5 -107.5t-142.5 -39.5q-75 0 -135.5 36.5zM459 394.5
q-20 39.5 -61 64.5t-100 25q-56 0 -96.5 -25.5t-62 -65.5t-21.5 -81h361q0 43 -20 82.5zM187 727l54 52l119 -119l-53 -54z" />
    <glyph glyph-name="emacron" unicode="&#x113;" horiz-adv-x="595" 
d="M169.5 24.5q-60.5 36.5 -95 100.5t-34.5 143q0 85 33 149.5t91.5 99.5t133.5 35q119 0 190.5 -77.5t71.5 -233.5h-442q0 -52 25.5 -94.5t68.5 -66.5t93 -24q58 0 100.5 27.5t67.5 75.5l68 -24q-32 -68 -93.5 -107.5t-142.5 -39.5q-75 0 -135.5 36.5zM459 394.5
q-20 39.5 -61 64.5t-100 25q-56 0 -96.5 -25.5t-62 -65.5t-21.5 -81h361q0 43 -20 82.5zM176 713h240v-67h-240v67z" />
    <glyph glyph-name="eogonek" unicode="&#x119;" horiz-adv-x="595" 
d="M169.5 24.5q-60.5 36.5 -95 100.5t-34.5 143q0 85 33 149.5t91.5 99.5t133.5 35q119 0 190.5 -77.5t71.5 -233.5h-442q0 -52 25.5 -94.5t68.5 -66.5t93 -24q58 0 100.5 27.5t67.5 75.5l68 -24q-24 -49 -62.5 -84t-89.5 -51q-41 -17 -65 -46t-24 -61q0 -27 19 -44.5
t60 -17.5v-59q-58 0 -98 22t-40 78q0 35 17.5 65t49.5 51h-3q-75 0 -135.5 36.5zM459 394.5q-20 39.5 -61 64.5t-100 25q-56 0 -96.5 -25.5t-62 -65.5t-21.5 -81h361q0 43 -20 82.5z" />
    <glyph glyph-name="uni0258" unicode="&#x258;" horiz-adv-x="595" 
d="M147.5 27.5q-61.5 39.5 -93.5 107.5l68 24q25 -48 67.5 -75.5t100.5 -27.5q50 0 93 24t68.5 66.5t25.5 94.5h-442q0 156 71.5 233.5t190.5 77.5q75 0 133.5 -35t91.5 -99.5t33 -149.5q0 -79 -34.5 -143t-95 -100.5t-135.5 -36.5q-81 0 -142.5 39.5zM455.5 393
q-21.5 40 -62 65.5t-96.5 25.5q-59 0 -100 -25t-61 -64.5t-20 -82.5h361q0 41 -21.5 81z" />
    <glyph glyph-name="uni1EBD" unicode="&#x1ebd;" horiz-adv-x="595" 
d="M169.5 24.5q-60.5 36.5 -95 100.5t-34.5 143q0 85 33 149.5t91.5 99.5t133.5 35q119 0 190.5 -77.5t71.5 -233.5h-442q0 -52 25.5 -94.5t68.5 -66.5t93 -24q58 0 100.5 27.5t67.5 75.5l68 -24q-32 -68 -93.5 -107.5t-142.5 -39.5q-75 0 -135.5 36.5zM459 394.5
q-20 39.5 -61 64.5t-100 25q-56 0 -96.5 -25.5t-62 -65.5t-21.5 -81h361q0 43 -20 82.5zM334.5 660q-19.5 7 -44.5 21q-19 10 -31 15t-25 5q-21 0 -35.5 -11.5t-14.5 -34.5h-74q0 48 29.5 78.5t80.5 30.5q25 0 44 -7t43 -21q19 -11 31 -16t25 -5q21 0 32 10t11 36h73
q0 -52 -27.5 -80t-73.5 -28q-24 0 -43.5 7z" />
    <glyph glyph-name="uni0259" unicode="&#x259;" horiz-adv-x="595" 
d="M425.5 515.5q60.5 -36.5 95 -100.5t34.5 -143q0 -85 -33 -149.5t-91.5 -99.5t-133.5 -35q-119 0 -190.5 77.5t-71.5 233.5h442q0 52 -25.5 94.5t-68.5 66.5t-93 24q-58 0 -100.5 -27.5t-67.5 -75.5l-68 24q32 68 93.5 107.5t142.5 39.5q75 0 135.5 -36.5zM136 145.5
q20 -39.5 61 -64.5t100 -25q56 0 96.5 25.5t62 65.5t21.5 81h-361q0 -43 20 -82.5z" />
    <glyph glyph-name="f" unicode="f" horiz-adv-x="344" 
d="M116 467h-95v73h95v84q0 70 43.5 105.5t106.5 35.5q34 0 61 -8v-70q-24 8 -46 8q-38 0 -62.5 -22t-24.5 -65v-68h135v-73h-135v-467h-78v467z" />
    <glyph glyph-name="g" unicode="g" horiz-adv-x="609" 
d="M158.5 -193.5q-58.5 36.5 -90.5 111.5l70 30q23 -54 66.5 -78.5t91.5 -24.5q43 0 80 19.5t59.5 58t22.5 93.5v78q-25 -47 -72.5 -68.5t-95.5 -21.5q-72 0 -129 36.5t-88.5 99t-31.5 139.5q0 78 31.5 140t88 97.5t128.5 35.5q48 0 97.5 -21t71.5 -63v72h76v-525
q0 -77 -30.5 -132t-85 -84t-124.5 -29q-77 0 -135.5 36.5zM141 177.5q22 -45.5 61 -71.5t87 -26q49 0 87 26t58.5 72.5t20.5 106.5q0 90 -44 141.5t-117 51.5q-50 0 -90 -25.5t-62.5 -70.5t-22.5 -102t22 -102.5z" />
    <glyph glyph-name="gbreve" unicode="&#x11f;" horiz-adv-x="609" 
d="M158.5 -193.5q-58.5 36.5 -90.5 111.5l70 30q23 -54 66.5 -78.5t91.5 -24.5q43 0 80 19.5t59.5 58t22.5 93.5v78q-25 -47 -72.5 -68.5t-95.5 -21.5q-72 0 -129 36.5t-88.5 99t-31.5 139.5q0 78 31.5 140t88 97.5t128.5 35.5q48 0 97.5 -21t71.5 -63v72h76v-525
q0 -77 -30.5 -132t-85 -84t-124.5 -29q-77 0 -135.5 36.5zM141 177.5q22 -45.5 61 -71.5t87 -26q49 0 87 26t58.5 72.5t20.5 106.5q0 90 -44 141.5t-117 51.5q-50 0 -90 -25.5t-62.5 -70.5t-22.5 -102t22 -102.5zM192.5 653q-37.5 37 -37.5 99h68q0 -33 18.5 -52.5
t50.5 -19.5t51 19.5t19 52.5h69q0 -62 -38 -99t-101 -37q-62 0 -99.5 37z" />
    <glyph glyph-name="gcaron" unicode="&#x1e7;" horiz-adv-x="609" 
d="M158.5 -193.5q-58.5 36.5 -90.5 111.5l70 30q23 -54 66.5 -78.5t91.5 -24.5q43 0 80 19.5t59.5 58t22.5 93.5v78q-25 -47 -72.5 -68.5t-95.5 -21.5q-72 0 -129 36.5t-88.5 99t-31.5 139.5q0 78 31.5 140t88 97.5t128.5 35.5q48 0 97.5 -21t71.5 -63v72h76v-525
q0 -77 -30.5 -132t-85 -84t-124.5 -29q-77 0 -135.5 36.5zM141 177.5q22 -45.5 61 -71.5t87 -26q49 0 87 26t58.5 72.5t20.5 106.5q0 90 -44 141.5t-117 51.5q-50 0 -90 -25.5t-62.5 -70.5t-22.5 -102t22 -102.5zM263 694l75 58l75 -10l-109 -116l-99 126l35 -30z" />
    <glyph glyph-name="gcircumflex" unicode="&#x11d;" horiz-adv-x="609" 
d="M158.5 -193.5q-58.5 36.5 -90.5 111.5l70 30q23 -54 66.5 -78.5t91.5 -24.5q43 0 80 19.5t59.5 58t22.5 93.5v78q-25 -47 -72.5 -68.5t-95.5 -21.5q-72 0 -129 36.5t-88.5 99t-31.5 139.5q0 78 31.5 140t88 97.5t128.5 35.5q48 0 97.5 -21t71.5 -63v72h76v-525
q0 -77 -30.5 -132t-85 -84t-124.5 -29q-77 0 -135.5 36.5zM141 177.5q22 -45.5 61 -71.5t87 -26q49 0 87 26t58.5 72.5t20.5 106.5q0 90 -44 141.5t-117 51.5q-50 0 -90 -25.5t-62.5 -70.5t-22.5 -102t22 -102.5zM175 639l150 95l98 -126l-75 11l-64 48l-75 -59z" />
    <glyph glyph-name="uni0123" unicode="&#x123;" horiz-adv-x="609" 
d="M158.5 -193.5q-58.5 36.5 -90.5 111.5l70 30q23 -54 66.5 -78.5t91.5 -24.5q43 0 80 19.5t59.5 58t22.5 93.5v78q-25 -47 -72.5 -68.5t-95.5 -21.5q-72 0 -129 36.5t-88.5 99t-31.5 139.5q0 78 31.5 140t88 97.5t128.5 35.5q48 0 97.5 -21t71.5 -63v72h76v-525
q0 -77 -30.5 -132t-85 -84t-124.5 -29q-77 0 -135.5 36.5zM141 177.5q22 -45.5 61 -71.5t87 -26q49 0 87 26t58.5 72.5t20.5 106.5q0 90 -44 141.5t-117 51.5q-50 0 -90 -25.5t-62.5 -70.5t-22.5 -102t22 -102.5zM237 622v111q0 35 22 62t79 27v-38q-23 0 -39 -8t-16 -34h69
v-120h-115z" />
    <glyph glyph-name="gdotaccent" unicode="&#x121;" horiz-adv-x="609" 
d="M158.5 -193.5q-58.5 36.5 -90.5 111.5l70 30q23 -54 66.5 -78.5t91.5 -24.5q43 0 80 19.5t59.5 58t22.5 93.5v78q-25 -47 -72.5 -68.5t-95.5 -21.5q-72 0 -129 36.5t-88.5 99t-31.5 139.5q0 78 31.5 140t88 97.5t128.5 35.5q48 0 97.5 -21t71.5 -63v72h76v-525
q0 -77 -30.5 -132t-85 -84t-124.5 -29q-77 0 -135.5 36.5zM141 177.5q22 -45.5 61 -71.5t87 -26q49 0 87 26t58.5 72.5t20.5 106.5q0 90 -44 141.5t-117 51.5q-50 0 -90 -25.5t-62.5 -70.5t-22.5 -102t22 -102.5zM241 752h105v-102h-105v102z" />
    <glyph glyph-name="uni1E21" unicode="&#x1e21;" horiz-adv-x="609" 
d="M158.5 -193.5q-58.5 36.5 -90.5 111.5l70 30q23 -54 66.5 -78.5t91.5 -24.5q43 0 80 19.5t59.5 58t22.5 93.5v78q-25 -47 -72.5 -68.5t-95.5 -21.5q-72 0 -129 36.5t-88.5 99t-31.5 139.5q0 78 31.5 140t88 97.5t128.5 35.5q48 0 97.5 -21t71.5 -63v72h76v-525
q0 -77 -30.5 -132t-85 -84t-124.5 -29q-77 0 -135.5 36.5zM141 177.5q22 -45.5 61 -71.5t87 -26q49 0 87 26t58.5 72.5t20.5 106.5q0 90 -44 141.5t-117 51.5q-50 0 -90 -25.5t-62.5 -70.5t-22.5 -102t22 -102.5zM174 713h240v-67h-240v67z" />
    <glyph glyph-name="h" unicode="h" horiz-adv-x="617" 
d="M77 752h79v-288q20 41 70 64.5t110 23.5q57 0 105 -21.5t77 -67t29 -114.5v-349h-78v331q0 74 -43.5 114.5t-106.5 40.5q-42 0 -79.5 -19t-60.5 -55.5t-23 -85.5v-326h-79v752z" />
    <glyph glyph-name="hbar" unicode="&#x127;" horiz-adv-x="617" 
d="M77 620h-58v53h58v79h79v-79h93v-53h-93v-156q20 41 70 64.5t110 23.5q57 0 105 -21.5t77 -67t29 -114.5v-349h-78v331q0 74 -43.5 114.5t-106.5 40.5q-42 0 -79.5 -19t-60.5 -55.5t-23 -85.5v-326h-79v620z" />
    <glyph glyph-name="hcircumflex" unicode="&#x125;" horiz-adv-x="617" 
d="M77 752h79v-288q20 41 70 64.5t110 23.5q57 0 105 -21.5t77 -67t29 -114.5v-349h-78v331q0 74 -43.5 114.5t-106.5 40.5q-42 0 -79.5 -19t-60.5 -55.5t-23 -85.5v-326h-79v752zM-1 851l150 95l98 -126l-75 11l-64 48l-75 -59z" />
    <glyph glyph-name="uni1E25" unicode="&#x1e25;" horiz-adv-x="617" 
d="M77 752h79v-288q20 41 70 64.5t110 23.5q57 0 105 -21.5t77 -67t29 -114.5v-349h-78v331q0 74 -43.5 114.5t-106.5 40.5q-42 0 -79.5 -19t-60.5 -55.5t-23 -85.5v-326h-79v752zM270 -170.5q-16 16.5 -16 39.5t16 39t39 16t39 -16t16 -39t-16 -39.5t-39 -16.5t-39 16.5z
" />
    <glyph glyph-name="i" unicode="i" horiz-adv-x="234" 
d="M77 540h79v-540h-79v540zM63 752h105v-102h-105v102z" />
    <glyph glyph-name="dotlessi" unicode="&#x131;" horiz-adv-x="234" 
d="M77 540h79v-540h-79v540z" />
    <glyph glyph-name="iacute" unicode="&#xed;" horiz-adv-x="234" 
d="M77 540h79v-540h-79v540zM31 660l120 119l53 -52l-120 -121z" />
    <glyph glyph-name="ibreve" unicode="&#x12d;" horiz-adv-x="234" 
d="M77 540h79v-540h-79v540zM14.5 653q-37.5 37 -37.5 99h68q0 -33 18.5 -52.5t50.5 -19.5t51 19.5t19 52.5h69q0 -62 -38 -99t-101 -37q-62 0 -99.5 37z" />
    <glyph glyph-name="uni01D0" unicode="&#x1d0;" horiz-adv-x="234" 
d="M77 540h79v-540h-79v540zM85 694l75 58l75 -10l-109 -116l-99 126l35 -30z" />
    <glyph glyph-name="icircumflex" unicode="&#xee;" horiz-adv-x="234" 
d="M77 540h79v-540h-79v540zM-3 639l150 95l98 -126l-75 11l-64 48l-75 -59z" />
    <glyph glyph-name="idieresis" unicode="&#xef;" horiz-adv-x="234" 
d="M77 540h79v-540h-79v540zM168 652q-16 16 -16 39t16 39.5t39 16.5t39 -16.5t16 -39.5t-16 -39t-39 -16t-39 16zM-14 730.5q16 16.5 39 16.5t39 -16.5t16 -39.5t-16 -39t-39 -16t-39 16t-16 39t16 39.5z" />
    <glyph glyph-name="i.loclTRK" horiz-adv-x="234" 
d="M77 540h79v-540h-79v540zM63 752h105v-102h-105v102z" />
    <glyph glyph-name="uni1ECB" unicode="&#x1ecb;" horiz-adv-x="234" 
d="M77 540h79v-540h-79v540zM63 752h105v-102h-105v102zM77 -170.5q-16 16.5 -16 39.5t16 39t39 16t39 -16t16 -39t-16 -39.5t-39 -16.5t-39 16.5z" />
    <glyph glyph-name="igrave" unicode="&#xec;" horiz-adv-x="234" 
d="M77 540h79v-540h-79v540zM7 727l54 52l119 -119l-53 -54z" />
    <glyph glyph-name="imacron" unicode="&#x12b;" horiz-adv-x="234" 
d="M77 540h79v-540h-79v540zM-4 713h240v-67h-240v67z" />
    <glyph glyph-name="iogonek" unicode="&#x12f;" horiz-adv-x="234" 
d="M77 540h79v-539l1 -1q-41 -17 -65 -46t-24 -61q0 -27 19 -44.5t60 -17.5v-59q-58 0 -98 22t-40 78q0 41 22.5 73.5t65.5 54.5h-20v540zM63 752h105v-102h-105v102z" />
    <glyph glyph-name="itilde" unicode="&#x129;" horiz-adv-x="234" 
d="M77 540h79v-540h-79v540zM154.5 660q-19.5 7 -44.5 21q-19 10 -31 15t-25 5q-21 0 -35.5 -11.5t-14.5 -34.5h-74q0 48 29.5 78.5t80.5 30.5q25 0 44 -7t43 -21q19 -11 31 -16t25 -5q21 0 32 10t11 36h73q0 -52 -27.5 -80t-73.5 -28q-24 0 -43.5 7z" />
    <glyph glyph-name="ij" unicode="&#x133;" horiz-adv-x="468" 
d="M77 540h79v-540h-79v540zM63 752h105v-102h-105v102zM248 -151q30 0 46.5 19.5t16.5 65.5v606h79v-614q0 -81 -33 -118.5t-91 -37.5q-32 0 -68 9v79q32 -9 50 -9zM298 752h105v-102h-105v102z" />
    <glyph glyph-name="j" unicode="j" horiz-adv-x="234" 
d="M14 -151q30 0 46.5 19.5t16.5 65.5v606h79v-614q0 -81 -33 -118.5t-91 -37.5q-32 0 -68 9v79q32 -9 50 -9zM64 752h105v-102h-105v102z" />
    <glyph glyph-name="uni0237" unicode="&#x237;" horiz-adv-x="234" 
d="M14 -151q30 0 46.5 19.5t16.5 65.5v606h79v-614q0 -81 -33 -118.5t-91 -37.5q-32 0 -68 9v79q32 -9 50 -9z" />
    <glyph glyph-name="uni006A0301" horiz-adv-x="234" 
d="M14 -151q30 0 46.5 19.5t16.5 65.5v606h79v-614q0 -81 -33 -118.5t-91 -37.5q-32 0 -68 9v79q32 -9 50 -9zM31 660l120 119l53 -52l-120 -121z" />
    <glyph glyph-name="jcircumflex" unicode="&#x135;" horiz-adv-x="234" 
d="M14 -151q30 0 46.5 19.5t16.5 65.5v606h79v-614q0 -81 -33 -118.5t-91 -37.5q-32 0 -68 9v79q32 -9 50 -9zM-2 639l150 95l98 -126l-75 11l-64 48l-75 -59z" />
    <glyph glyph-name="k" unicode="k" horiz-adv-x="535" 
d="M77 752h76v-426l243 214h108l-194 -174l229 -366h-87l-197 318l-102 -91v-227h-76v752z" />
    <glyph glyph-name="uni01E9" unicode="&#x1e9;" horiz-adv-x="535" 
d="M77 752h76v-426l243 214h108l-194 -174l229 -366h-87l-197 318l-102 -91v-227h-76v752zM355 694l75 58l75 -10l-109 -116l-99 126l35 -30z" />
    <glyph glyph-name="uni0137" unicode="&#x137;" horiz-adv-x="535" 
d="M77 752h76v-426l243 214h108l-194 -174l229 -366h-87l-197 318l-102 -91v-227h-76v752zM341 -84v-108q0 -34 -22.5 -60t-79.5 -26v38q56 0 56 42h-69v114h115z" />
    <glyph glyph-name="kgreenlandic" unicode="&#x138;" horiz-adv-x="530" 
d="M77 540h73v-224l248 224h101l-192 -177l228 -363h-86l-196 312l-103 -94v-218h-73v540z" />
    <glyph glyph-name="l" unicode="l" horiz-adv-x="233" 
d="M77 752h79v-752h-79v752z" />
    <glyph glyph-name="lacute" unicode="&#x13a;" horiz-adv-x="233" 
d="M77 752h79v-752h-79v752zM32 872l120 119l53 -52l-120 -121z" />
    <glyph glyph-name="lcaron" unicode="&#x13e;" horiz-adv-x="233" 
d="M77 752h79v-752h-79v752zM272 752v-102q0 -31 -16.5 -56.5t-59.5 -25.5v34q17 0 28 9.5t11 38.5h-39v102h76z" />
    <glyph glyph-name="uni013C" unicode="&#x13c;" horiz-adv-x="233" 
d="M77 752h79v-752h-79v752zM176 -84v-108q0 -34 -22.5 -60t-79.5 -26v38q56 0 56 42h-69v114h115z" />
    <glyph glyph-name="ldot" unicode="&#x140;" horiz-adv-x="379" 
d="M77 752h79v-752h-79v752zM363 415v-115h-115v115h115z" />
    <glyph glyph-name="uni1E37" unicode="&#x1e37;" horiz-adv-x="233" 
d="M77 752h79v-752h-79v752zM79 -170.5q-16 16.5 -16 39.5t16 39t39 16t39 -16t16 -39t-16 -39.5t-39 -16.5t-39 16.5z" />
    <glyph glyph-name="lslash" unicode="&#x142;" horiz-adv-x="267" 
d="M94 289h-79l79 88v375h79v-288h81l-81 -91v-373h-79v289z" />
    <glyph glyph-name="m" unicode="m" horiz-adv-x="975" 
d="M77 540h77v-69q22 38 66 59.5t100 21.5q60 0 110 -27t76 -81q28 51 80 79.5t113 28.5q54 0 101 -23t76 -69.5t29 -112.5v-347h-78v330q0 74 -40.5 114t-100.5 40q-40 0 -75.5 -19.5t-57.5 -56t-22 -85.5v-323h-78v330q0 75 -41 114.5t-102 39.5q-40 0 -76 -19.5t-58 -56
t-22 -85.5v-323h-77v540z" />
    <glyph glyph-name="n" unicode="n" horiz-adv-x="617" 
d="M77 540h77v-78q21 40 72 65t111 25q57 0 105 -23.5t76.5 -70.5t28.5 -116v-342h-78v328q0 74 -43.5 114t-106.5 40q-43 0 -80.5 -19t-60.5 -55t-23 -85v-323h-78v540z" />
    <glyph glyph-name="nacute" unicode="&#x144;" horiz-adv-x="617" 
d="M77 540h77v-78q21 40 72 65t111 25q57 0 105 -23.5t76.5 -70.5t28.5 -116v-342h-78v328q0 74 -43.5 114t-106.5 40q-43 0 -80.5 -19t-60.5 -55t-23 -85v-323h-78v540zM220 660l120 119l53 -52l-120 -121z" />
    <glyph glyph-name="napostrophe" unicode="&#x149;" horiz-adv-x="725" 
d="M99.5 743.5q24.5 -24.5 24.5 -62.5v-109h-115l-1 115h70q0 25 -15 33.5t-41 8.5v37q53 2 77.5 -22.5zM185 540h77v-78q21 40 72 65t111 25q57 0 105 -23.5t76.5 -70.5t28.5 -116v-342h-78v328q0 74 -43.5 114t-106.5 40q-43 0 -80.5 -19t-60.5 -55t-23 -85v-323h-78v540z
" />
    <glyph glyph-name="ncaron" unicode="&#x148;" horiz-adv-x="617" 
d="M77 540h77v-78q21 40 72 65t111 25q57 0 105 -23.5t76.5 -70.5t28.5 -116v-342h-78v328q0 74 -43.5 114t-106.5 40q-43 0 -80.5 -19t-60.5 -55t-23 -85v-323h-78v540zM275 694l75 58l75 -10l-109 -116l-99 126l35 -30z" />
    <glyph glyph-name="uni0146" unicode="&#x146;" horiz-adv-x="617" 
d="M77 540h77v-78q21 40 72 65t111 25q57 0 105 -23.5t76.5 -70.5t28.5 -116v-342h-78v328q0 74 -43.5 114t-106.5 40q-43 0 -80.5 -19t-60.5 -55t-23 -85v-323h-78v540zM371 -84v-108q0 -34 -22.5 -60t-79.5 -26v38q56 0 56 42h-69v114h115z" />
    <glyph glyph-name="uni1E45" unicode="&#x1e45;" horiz-adv-x="617" 
d="M77 540h77v-78q21 40 72 65t111 25q57 0 105 -23.5t76.5 -70.5t28.5 -116v-342h-78v328q0 74 -43.5 114t-106.5 40q-43 0 -80.5 -19t-60.5 -55t-23 -85v-323h-78v540zM253 752h105v-102h-105v102z" />
    <glyph glyph-name="uni1E47" unicode="&#x1e47;" horiz-adv-x="617" 
d="M77 540h77v-78q21 40 72 65t111 25q57 0 105 -23.5t76.5 -70.5t28.5 -116v-342h-78v328q0 74 -43.5 114t-106.5 40q-43 0 -80.5 -19t-60.5 -55t-23 -85v-323h-78v540zM274 -170.5q-16 16.5 -16 39.5t16 39t39 16t39 -16t16 -39t-16 -39.5t-39 -16.5t-39 16.5z" />
    <glyph glyph-name="ntilde" unicode="&#xf1;" horiz-adv-x="617" 
d="M77 540h77v-78q21 40 72 65t111 25q57 0 105 -23.5t76.5 -70.5t28.5 -116v-342h-78v328q0 74 -43.5 114t-106.5 40q-43 0 -80.5 -19t-60.5 -55t-23 -85v-323h-78v540zM344.5 660q-19.5 7 -44.5 21q-19 10 -31 15t-25 5q-21 0 -35.5 -11.5t-14.5 -34.5h-74q0 48 29.5 78.5
t80.5 30.5q25 0 44 -7t43 -21q19 -11 31 -16t25 -5q21 0 32 10t11 36h73q0 -52 -27.5 -80t-73.5 -28q-24 0 -43.5 7z" />
    <glyph glyph-name="eng" unicode="&#x14b;" horiz-adv-x="617" 
d="M356 -221v79q32 -9 50 -9q30 0 46.5 19.5t16.5 65.5v394q0 74 -43.5 114t-106.5 40q-43 0 -80.5 -19t-60.5 -55t-23 -85v-323h-78v540h77v-78q21 40 72 65t111 25q57 0 105 -23.5t76.5 -70.5t28.5 -116v-416q0 -156 -124 -156q-31 0 -67 9z" />
    <glyph glyph-name="o" unicode="o" horiz-adv-x="633" 
d="M175.5 25q-63.5 37 -99.5 101.5t-36 143.5t36 143.5t99.5 101.5t141.5 37t140.5 -37t98.5 -101.5t36 -143.5t-36 -143.5t-98.5 -101.5t-140.5 -37t-141.5 37zM146 162q26 -49 71 -77t100 -28t100 28t71 77t26 108t-26 107t-71 75.5t-100 27.5t-100 -27.5t-71 -75
t-26 -107.5q0 -59 26 -108z" />
    <glyph glyph-name="oacute" unicode="&#xf3;" horiz-adv-x="633" 
d="M175.5 25q-63.5 37 -99.5 101.5t-36 143.5t36 143.5t99.5 101.5t141.5 37t140.5 -37t98.5 -101.5t36 -143.5t-36 -143.5t-98.5 -101.5t-140.5 -37t-141.5 37zM146 162q26 -49 71 -77t100 -28t100 28t71 77t26 108t-26 107t-71 75.5t-100 27.5t-100 -27.5t-71 -75
t-26 -107.5q0 -59 26 -108zM235 660l120 119l53 -52l-120 -121z" />
    <glyph glyph-name="obreve" unicode="&#x14f;" horiz-adv-x="633" 
d="M175.5 25q-63.5 37 -99.5 101.5t-36 143.5t36 143.5t99.5 101.5t141.5 37t140.5 -37t98.5 -101.5t36 -143.5t-36 -143.5t-98.5 -101.5t-140.5 -37t-141.5 37zM146 162q26 -49 71 -77t100 -28t100 28t71 77t26 108t-26 107t-71 75.5t-100 27.5t-100 -27.5t-71 -75
t-26 -107.5q0 -59 26 -108zM218.5 653q-37.5 37 -37.5 99h68q0 -33 18.5 -52.5t50.5 -19.5t51 19.5t19 52.5h69q0 -62 -38 -99t-101 -37q-62 0 -99.5 37z" />
    <glyph glyph-name="uni01D2" unicode="&#x1d2;" horiz-adv-x="633" 
d="M175.5 25q-63.5 37 -99.5 101.5t-36 143.5t36 143.5t99.5 101.5t141.5 37t140.5 -37t98.5 -101.5t36 -143.5t-36 -143.5t-98.5 -101.5t-140.5 -37t-141.5 37zM146 162q26 -49 71 -77t100 -28t100 28t71 77t26 108t-26 107t-71 75.5t-100 27.5t-100 -27.5t-71 -75
t-26 -107.5q0 -59 26 -108zM289 694l75 58l75 -10l-109 -116l-99 126l35 -30z" />
    <glyph glyph-name="ocircumflex" unicode="&#xf4;" horiz-adv-x="633" 
d="M175.5 25q-63.5 37 -99.5 101.5t-36 143.5t36 143.5t99.5 101.5t141.5 37t140.5 -37t98.5 -101.5t36 -143.5t-36 -143.5t-98.5 -101.5t-140.5 -37t-141.5 37zM146 162q26 -49 71 -77t100 -28t100 28t71 77t26 108t-26 107t-71 75.5t-100 27.5t-100 -27.5t-71 -75
t-26 -107.5q0 -59 26 -108zM201 639l150 95l98 -126l-75 11l-64 48l-75 -59z" />
    <glyph glyph-name="odieresis" unicode="&#xf6;" horiz-adv-x="633" 
d="M175.5 25q-63.5 37 -99.5 101.5t-36 143.5t36 143.5t99.5 101.5t141.5 37t140.5 -37t98.5 -101.5t36 -143.5t-36 -143.5t-98.5 -101.5t-140.5 -37t-141.5 37zM146 162q26 -49 71 -77t100 -28t100 28t71 77t26 108t-26 107t-71 75.5t-100 27.5t-100 -27.5t-71 -75
t-26 -107.5q0 -59 26 -108zM372 652q-16 16 -16 39t16 39.5t39 16.5t39 -16.5t16 -39.5t-16 -39t-39 -16t-39 16zM190 730.5q16 16.5 39 16.5t39 -16.5t16 -39.5t-16 -39t-39 -16t-39 16t-16 39t16 39.5z" />
    <glyph glyph-name="uni1ECD" unicode="&#x1ecd;" horiz-adv-x="633" 
d="M175.5 25q-63.5 37 -99.5 101.5t-36 143.5t36 143.5t99.5 101.5t141.5 37t140.5 -37t98.5 -101.5t36 -143.5t-36 -143.5t-98.5 -101.5t-140.5 -37t-141.5 37zM146 162q26 -49 71 -77t100 -28t100 28t71 77t26 108t-26 107t-71 75.5t-100 27.5t-100 -27.5t-71 -75
t-26 -107.5q0 -59 26 -108zM281 -170.5q-16 16.5 -16 39.5t16 39t39 16t39 -16t16 -39t-16 -39.5t-39 -16.5t-39 16.5z" />
    <glyph glyph-name="ograve" unicode="&#xf2;" horiz-adv-x="633" 
d="M175.5 25q-63.5 37 -99.5 101.5t-36 143.5t36 143.5t99.5 101.5t141.5 37t140.5 -37t98.5 -101.5t36 -143.5t-36 -143.5t-98.5 -101.5t-140.5 -37t-141.5 37zM146 162q26 -49 71 -77t100 -28t100 28t71 77t26 108t-26 107t-71 75.5t-100 27.5t-100 -27.5t-71 -75
t-26 -107.5q0 -59 26 -108zM211 727l54 52l119 -119l-53 -54z" />
    <glyph glyph-name="ohungarumlaut" unicode="&#x151;" horiz-adv-x="633" 
d="M175.5 25q-63.5 37 -99.5 101.5t-36 143.5t36 143.5t99.5 101.5t141.5 37t140.5 -37t98.5 -101.5t36 -143.5t-36 -143.5t-98.5 -101.5t-140.5 -37t-141.5 37zM146 162q26 -49 71 -77t100 -28t100 28t71 77t26 108t-26 107t-71 75.5t-100 27.5t-100 -27.5t-71 -75
t-26 -107.5q0 -59 26 -108zM340 659l118 117l52 -51l-118 -118zM308 776l52 -51l-117 -118l-52 52z" />
    <glyph glyph-name="omacron" unicode="&#x14d;" horiz-adv-x="633" 
d="M175.5 25q-63.5 37 -99.5 101.5t-36 143.5t36 143.5t99.5 101.5t141.5 37t140.5 -37t98.5 -101.5t36 -143.5t-36 -143.5t-98.5 -101.5t-140.5 -37t-141.5 37zM146 162q26 -49 71 -77t100 -28t100 28t71 77t26 108t-26 107t-71 75.5t-100 27.5t-100 -27.5t-71 -75
t-26 -107.5q0 -59 26 -108zM200 713h240v-67h-240v67z" />
    <glyph glyph-name="oslash" unicode="&#xf8;" horiz-adv-x="633" 
d="M148 43l-49 -52l-50 45l51 54q-60 76 -60 180q0 79 36 143.5t99.5 101.5t141.5 37q94 0 167 -54l47 50l47 -44l-48 -51q62 -78 62 -183q0 -79 -36 -143.5t-98.5 -101.5t-140.5 -37q-97 0 -169 55zM154 148l278 295q-51 37 -115 37q-55 0 -100 -27.5t-71 -75t-26 -107.5
q0 -69 34 -122zM317 57q55 0 100 28t71 77t26 108q0 70 -37 126l-278 -298q50 -41 118 -41z" />
    <glyph glyph-name="otilde" unicode="&#xf5;" horiz-adv-x="633" 
d="M175.5 25q-63.5 37 -99.5 101.5t-36 143.5t36 143.5t99.5 101.5t141.5 37t140.5 -37t98.5 -101.5t36 -143.5t-36 -143.5t-98.5 -101.5t-140.5 -37t-141.5 37zM146 162q26 -49 71 -77t100 -28t100 28t71 77t26 108t-26 107t-71 75.5t-100 27.5t-100 -27.5t-71 -75
t-26 -107.5q0 -59 26 -108zM358.5 660q-19.5 7 -44.5 21q-19 10 -31 15t-25 5q-21 0 -35.5 -11.5t-14.5 -34.5h-74q0 48 29.5 78.5t80.5 30.5q25 0 44 -7t43 -21q19 -11 31 -16t25 -5q21 0 32 10t11 36h73q0 -52 -27.5 -80t-73.5 -28q-24 0 -43.5 7z" />
    <glyph glyph-name="oe" unicode="&#x153;" horiz-adv-x="1084" 
d="M175.5 25q-63.5 37 -99.5 101.5t-36 143.5t36 143.5t99.5 101.5t141.5 37t141 -37t98 -101q31 69 91.5 107.5t139.5 38.5q119 0 190.5 -77.5t71.5 -233.5h-442q0 -52 25.5 -94.5t68.5 -66.5t93 -24q58 0 100.5 27.5t67.5 75.5l68 -24q-32 -68 -93.5 -107.5t-142.5 -39.5
q-76 0 -137 37.5t-95 102.5q-34 -68 -99 -108t-146 -40q-78 0 -141.5 37zM146 162q26 -49 71 -77t100 -28t100 28t71 77t26 108t-26 107t-71 75.5t-100 27.5t-100 -27.5t-71 -75t-26 -107.5q0 -59 26 -108zM948 402.5q-20 39.5 -61 64.5t-100 25q-56 0 -96.5 -25.5
t-62 -65.5t-21.5 -81h361q0 43 -20 82.5z" />
    <glyph glyph-name="p" unicode="p" horiz-adv-x="609" 
d="M77 540h77v-78q20 40 69 65t106 25q70 0 124 -36.5t84.5 -101t30.5 -147.5q0 -81 -30.5 -144t-84.5 -98t-124 -35q-56 0 -104.5 26.5t-70.5 67.5v-304h-77v760zM177.5 165q21.5 -47 59.5 -73.5t87 -26.5q48 0 86 26t59.5 73t21.5 106q0 60 -21.5 107.5t-59.5 74.5t-86 27
t-86.5 -26.5t-60 -73.5t-21.5 -107t21.5 -107z" />
    <glyph glyph-name="thorn" unicode="&#xfe;" horiz-adv-x="609" 
d="M77 752h77v-290q22 43 74 66.5t101 23.5q70 0 124.5 -37.5t84.5 -102.5t30 -145q0 -79 -30.5 -142.5t-85 -99t-123.5 -35.5q-50 0 -100.5 23t-74.5 71v-304h-77v972zM177 165q21 -47 59 -73.5t87 -26.5t87 26t59 72.5t21 106.5t-20.5 107.5t-58 74.5t-87.5 27t-88 -27
t-59 -74t-21 -106q0 -60 21 -107z" />
    <glyph glyph-name="q" unicode="q" horiz-adv-x="609" 
d="M455 -220v304q-22 -41 -70.5 -67.5t-104.5 -26.5q-70 0 -124 35t-84.5 98t-30.5 144q0 83 30.5 147.5t84.5 101t124 36.5q57 0 106 -25t69 -65v78h77v-760h-77zM431.5 379q-21.5 47 -60 73.5t-86.5 26.5t-86 -27t-59.5 -74.5t-21.5 -107.5q0 -59 21.5 -106t59.5 -73
t86 -26q49 0 87 26.5t59.5 73.5t21.5 107t-21.5 107z" />
    <glyph glyph-name="r" unicode="r" horiz-adv-x="381" 
d="M77 540h78v-71q33 47 86 63.5t116 15.5v-74q-89 0 -145.5 -36t-56.5 -121v-317h-78v540z" />
    <glyph glyph-name="racute" unicode="&#x155;" horiz-adv-x="381" 
d="M77 540h78v-71q33 47 86 63.5t116 15.5v-74q-89 0 -145.5 -36t-56.5 -121v-317h-78v540zM117 660l120 119l53 -52l-120 -121z" />
    <glyph glyph-name="rcaron" unicode="&#x159;" horiz-adv-x="381" 
d="M77 540h78v-71q33 47 86 63.5t116 15.5v-74q-89 0 -145.5 -36t-56.5 -121v-317h-78v540zM172 694l75 58l75 -10l-109 -116l-99 126l35 -30z" />
    <glyph glyph-name="uni0157" unicode="&#x157;" horiz-adv-x="381" 
d="M77 540h78v-71q33 47 86 63.5t116 15.5v-74q-89 0 -145.5 -36t-56.5 -121v-317h-78v540zM174 -84v-108q0 -34 -22.5 -60t-79.5 -26v38q56 0 56 42h-69v114h115z" />
    <glyph glyph-name="s" unicode="s" horiz-adv-x="527" 
d="M113.5 27.5q-61.5 39.5 -82.5 114.5l76 17q32 -102 161 -102q62 0 102 23.5t40 68.5q0 32 -21 50.5t-52 27.5t-85 18q-67 12 -107 24.5t-68.5 42t-28.5 82.5q0 77 59 117.5t149 40.5q86 0 143.5 -37.5t82.5 -107.5l-75 -18q-19 44 -53.5 69t-96.5 25q-57 0 -93 -22
t-36 -62q0 -30 20.5 -47.5t50.5 -26t83 -17.5q66 -12 107.5 -24.5t70.5 -42.5t29 -83q0 -78 -61.5 -124t-161.5 -46q-91 0 -152.5 39.5z" />
    <glyph glyph-name="sacute" unicode="&#x15b;" horiz-adv-x="527" 
d="M113.5 27.5q-61.5 39.5 -82.5 114.5l76 17q32 -102 161 -102q62 0 102 23.5t40 68.5q0 32 -21 50.5t-52 27.5t-85 18q-67 12 -107 24.5t-68.5 42t-28.5 82.5q0 77 59 117.5t149 40.5q86 0 143.5 -37.5t82.5 -107.5l-75 -18q-19 44 -53.5 69t-96.5 25q-57 0 -93 -22
t-36 -62q0 -30 20.5 -47.5t50.5 -26t83 -17.5q66 -12 107.5 -24.5t70.5 -42.5t29 -83q0 -78 -61.5 -124t-161.5 -46q-91 0 -152.5 39.5zM178 660l120 119l53 -52l-120 -121z" />
    <glyph glyph-name="scaron" unicode="&#x161;" horiz-adv-x="527" 
d="M113.5 27.5q-61.5 39.5 -82.5 114.5l76 17q32 -102 161 -102q62 0 102 23.5t40 68.5q0 32 -21 50.5t-52 27.5t-85 18q-67 12 -107 24.5t-68.5 42t-28.5 82.5q0 77 59 117.5t149 40.5q86 0 143.5 -37.5t82.5 -107.5l-75 -18q-19 44 -53.5 69t-96.5 25q-57 0 -93 -22
t-36 -62q0 -30 20.5 -47.5t50.5 -26t83 -17.5q66 -12 107.5 -24.5t70.5 -42.5t29 -83q0 -78 -61.5 -124t-161.5 -46q-91 0 -152.5 39.5zM233 694l75 58l75 -10l-109 -116l-99 126l35 -30z" />
    <glyph glyph-name="scedilla" unicode="&#x15f;" horiz-adv-x="527" 
d="M243 -158q25 0 37 8t12 22q0 35 -71 35l19 82q-81 5 -135.5 44t-73.5 109l76 17q32 -102 161 -102q62 0 102 23.5t40 68.5q0 32 -21 50.5t-52 27.5t-85 18q-67 12 -107 24.5t-68.5 42t-28.5 82.5q0 77 59 117.5t149 40.5q86 0 143.5 -37.5t82.5 -107.5l-75 -18
q-19 44 -53.5 69t-96.5 25q-57 0 -93 -22t-36 -62q0 -30 20.5 -47.5t50.5 -26t83 -17.5q66 -12 107.5 -24.5t70.5 -42.5t29 -83q0 -74 -57 -120t-151 -50l-5 -46q40 -5 60.5 -24t20.5 -49q0 -39 -31.5 -62t-84.5 -23q-21 0 -49 5l11 57q21 -4 40 -4z" />
    <glyph glyph-name="scircumflex" unicode="&#x15d;" horiz-adv-x="527" 
d="M113.5 27.5q-61.5 39.5 -82.5 114.5l76 17q32 -102 161 -102q62 0 102 23.5t40 68.5q0 32 -21 50.5t-52 27.5t-85 18q-67 12 -107 24.5t-68.5 42t-28.5 82.5q0 77 59 117.5t149 40.5q86 0 143.5 -37.5t82.5 -107.5l-75 -18q-19 44 -53.5 69t-96.5 25q-57 0 -93 -22
t-36 -62q0 -30 20.5 -47.5t50.5 -26t83 -17.5q66 -12 107.5 -24.5t70.5 -42.5t29 -83q0 -78 -61.5 -124t-161.5 -46q-91 0 -152.5 39.5zM145 639l150 95l98 -126l-75 11l-64 48l-75 -59z" />
    <glyph glyph-name="uni0219" unicode="&#x219;" horiz-adv-x="527" 
d="M113.5 27.5q-61.5 39.5 -82.5 114.5l76 17q32 -102 161 -102q62 0 102 23.5t40 68.5q0 32 -21 50.5t-52 27.5t-85 18q-67 12 -107 24.5t-68.5 42t-28.5 82.5q0 77 59 117.5t149 40.5q86 0 143.5 -37.5t82.5 -107.5l-75 -18q-19 44 -53.5 69t-96.5 25q-57 0 -93 -22
t-36 -62q0 -30 20.5 -47.5t50.5 -26t83 -17.5q66 -12 107.5 -24.5t70.5 -42.5t29 -83q0 -78 -61.5 -124t-161.5 -46q-91 0 -152.5 39.5zM322 -84v-108q0 -34 -22.5 -60t-79.5 -26v38q56 0 56 42h-69v114h115z" />
    <glyph glyph-name="uni1E63" unicode="&#x1e63;" horiz-adv-x="527" 
d="M113.5 27.5q-61.5 39.5 -82.5 114.5l76 17q32 -102 161 -102q62 0 102 23.5t40 68.5q0 32 -21 50.5t-52 27.5t-85 18q-67 12 -107 24.5t-68.5 42t-28.5 82.5q0 77 59 117.5t149 40.5q86 0 143.5 -37.5t82.5 -107.5l-75 -18q-19 44 -53.5 69t-96.5 25q-57 0 -93 -22
t-36 -62q0 -30 20.5 -47.5t50.5 -26t83 -17.5q66 -12 107.5 -24.5t70.5 -42.5t29 -83q0 -78 -61.5 -124t-161.5 -46q-91 0 -152.5 39.5zM225 -170.5q-16 16.5 -16 39.5t16 39t39 16t39 -16t16 -39t-16 -39.5t-39 -16.5t-39 16.5z" />
    <glyph glyph-name="germandbls" unicode="&#xdf;" horiz-adv-x="577" 
d="M412 91q50 36 50 116q0 72 -47 110.5t-124 38.5h-89v73h100q57 0 91 34.5t34 89.5q0 64 -35.5 102t-103.5 38q-65 0 -100.5 -43t-35.5 -119v-531h-76v547q0 97 53 157t156 60q105 0 161 -57.5t56 -147.5q0 -57 -24 -103t-70 -66q59 -16 93.5 -65.5t34.5 -120.5
q0 -63 -26.5 -112t-75.5 -76.5t-114 -27.5h-45v67q87 0 137 36z" />
    <glyph glyph-name="longs" unicode="&#x17f;" horiz-adv-x="344" 
d="M159.5 729.5q43.5 35.5 106.5 35.5q34 0 61 -8v-70q-24 8 -46 8q-38 0 -62.5 -22t-24.5 -65v-608h-78v624q0 70 43.5 105.5z" />
    <glyph glyph-name="t" unicode="t" horiz-adv-x="335" 
d="M222 -10q-50 0 -78 34.5t-28 93.5v349h-99v73h99v174h75v-174h116v-73h-116v-335q0 -37 12 -53t36 -16q13 0 33 5v-70q-29 -8 -50 -8z" />
    <glyph glyph-name="tbar" unicode="&#x167;" horiz-adv-x="335" 
d="M222 -10q-50 0 -78 34.5t-28 93.5v184h-78v53h78v112h-99v73h99v174h75v-174h116v-73h-116v-112h77v-53h-77v-170q0 -37 12 -53t36 -16q13 0 33 5v-70q-29 -8 -50 -8z" />
    <glyph glyph-name="tcaron" unicode="&#x165;" horiz-adv-x="335" 
d="M222 -10q-50 0 -78 34.5t-28 93.5v349h-99v73h99v174h75v-174h116v-73h-116v-335q0 -37 12 -53t36 -16q13 0 33 5v-70q-29 -8 -50 -8zM307 752v-102q0 -31 -16.5 -56.5t-59.5 -25.5v34q17 0 28 9.5t11 38.5h-39v102h76z" />
    <glyph glyph-name="uni0163" unicode="&#x163;" horiz-adv-x="335" 
d="M225 -10l-5 -48q40 -5 60.5 -24t20.5 -49q0 -39 -31.5 -62t-84.5 -23q-21 0 -49 5l11 57q21 -4 40 -4q25 0 37 8t12 22q0 35 -71 35l21 89q-34 10 -52 42t-18 80v349h-99v73h99v174h75v-174h116v-73h-116v-335q0 -37 12 -53t36 -16q13 0 33 5v-70q-27 -8 -47 -8z" />
    <glyph glyph-name="uni021B" unicode="&#x21b;" horiz-adv-x="335" 
d="M222 -10q-50 0 -78 34.5t-28 93.5v349h-99v73h99v174h75v-174h116v-73h-116v-335q0 -37 12 -53t36 -16q13 0 33 5v-70q-29 -8 -50 -8zM265 -84v-108q0 -34 -22.5 -60t-79.5 -26v38q56 0 56 42h-69v114h115z" />
    <glyph glyph-name="uni1E6D" unicode="&#x1e6d;" horiz-adv-x="335" 
d="M222 -10q-50 0 -78 34.5t-28 93.5v349h-99v73h99v174h75v-174h116v-73h-116v-335q0 -37 12 -53t36 -16q13 0 33 5v-70q-29 -8 -50 -8zM168 -170.5q-16 16.5 -16 39.5t16 39t39 16t39 -16t16 -39t-16 -39.5t-39 -16.5t-39 16.5z" />
    <glyph glyph-name="u" unicode="u" horiz-adv-x="617" 
d="M540 0h-77v78q-21 -40 -72 -65t-111 -25q-57 0 -105 23.5t-76.5 70.5t-28.5 116v342h78v-328q0 -74 43.5 -114t106.5 -40q43 0 80.5 19t60.5 55t23 85v323h78v-540z" />
    <glyph glyph-name="uacute" unicode="&#xfa;" horiz-adv-x="617" 
d="M540 0h-77v78q-21 -40 -72 -65t-111 -25q-57 0 -105 23.5t-76.5 70.5t-28.5 116v342h78v-328q0 -74 43.5 -114t106.5 -40q43 0 80.5 19t60.5 55t23 85v323h78v-540zM218 660l120 119l53 -52l-120 -121z" />
    <glyph glyph-name="ubreve" unicode="&#x16d;" horiz-adv-x="617" 
d="M540 0h-77v78q-21 -40 -72 -65t-111 -25q-57 0 -105 23.5t-76.5 70.5t-28.5 116v342h78v-328q0 -74 43.5 -114t106.5 -40q43 0 80.5 19t60.5 55t23 85v323h78v-540zM202.5 653q-37.5 37 -37.5 99h68q0 -33 18.5 -52.5t50.5 -19.5t51 19.5t19 52.5h69q0 -62 -38 -99
t-101 -37q-62 0 -99.5 37z" />
    <glyph glyph-name="uni01D4" unicode="&#x1d4;" horiz-adv-x="617" 
d="M540 0h-77v78q-21 -40 -72 -65t-111 -25q-57 0 -105 23.5t-76.5 70.5t-28.5 116v342h78v-328q0 -74 43.5 -114t106.5 -40q43 0 80.5 19t60.5 55t23 85v323h78v-540zM273 694l75 58l75 -10l-109 -116l-99 126l35 -30z" />
    <glyph glyph-name="ucircumflex" unicode="&#xfb;" horiz-adv-x="617" 
d="M540 0h-77v78q-21 -40 -72 -65t-111 -25q-57 0 -105 23.5t-76.5 70.5t-28.5 116v342h78v-328q0 -74 43.5 -114t106.5 -40q43 0 80.5 19t60.5 55t23 85v323h78v-540zM185 639l150 95l98 -126l-75 11l-64 48l-75 -59z" />
    <glyph glyph-name="udieresis" unicode="&#xfc;" horiz-adv-x="617" 
d="M540 0h-77v78q-21 -40 -72 -65t-111 -25q-57 0 -105 23.5t-76.5 70.5t-28.5 116v342h78v-328q0 -74 43.5 -114t106.5 -40q43 0 80.5 19t60.5 55t23 85v323h78v-540zM355 652q-16 16 -16 39t16 39.5t39 16.5t39 -16.5t16 -39.5t-16 -39t-39 -16t-39 16zM173 730.5
q16 16.5 39 16.5t39 -16.5t16 -39.5t-16 -39t-39 -16t-39 16t-16 39t16 39.5z" />
    <glyph glyph-name="ugrave" unicode="&#xf9;" horiz-adv-x="617" 
d="M540 0h-77v78q-21 -40 -72 -65t-111 -25q-57 0 -105 23.5t-76.5 70.5t-28.5 116v342h78v-328q0 -74 43.5 -114t106.5 -40q43 0 80.5 19t60.5 55t23 85v323h78v-540zM195 727l54 52l119 -119l-53 -54z" />
    <glyph glyph-name="uhungarumlaut" unicode="&#x171;" horiz-adv-x="617" 
d="M540 0h-77v78q-21 -40 -72 -65t-111 -25q-57 0 -105 23.5t-76.5 70.5t-28.5 116v342h78v-328q0 -74 43.5 -114t106.5 -40q43 0 80.5 19t60.5 55t23 85v323h78v-540zM323 659l118 117l52 -51l-118 -118zM291 776l52 -51l-117 -118l-52 52z" />
    <glyph glyph-name="umacron" unicode="&#x16b;" horiz-adv-x="617" 
d="M540 0h-77v78q-21 -40 -72 -65t-111 -25q-57 0 -105 23.5t-76.5 70.5t-28.5 116v342h78v-328q0 -74 43.5 -114t106.5 -40q43 0 80.5 19t60.5 55t23 85v323h78v-540zM183 713h240v-67h-240v67z" />
    <glyph glyph-name="uogonek" unicode="&#x173;" horiz-adv-x="617" 
d="M540 0h-25q-41 -17 -65 -46t-24 -61q0 -27 19 -44.5t60 -17.5v-59q-58 0 -98 22t-40 78q0 43 25 77t71 55v74q-21 -40 -72 -65t-111 -25q-57 0 -105 23.5t-76.5 70.5t-28.5 116v342h78v-328q0 -74 43.5 -114t106.5 -40q43 0 80.5 19t60.5 55t23 85v323h78v-540z" />
    <glyph glyph-name="uring" unicode="&#x16f;" horiz-adv-x="617" 
d="M540 0h-77v78q-21 -40 -72 -65t-111 -25q-57 0 -105 23.5t-76.5 70.5t-28.5 116v342h78v-328q0 -74 43.5 -114t106.5 -40q43 0 80.5 19t60.5 55t23 85v323h78v-540zM220.5 652q-33.5 33 -33.5 84t33.5 84.5t83.5 33.5t83 -33.5t33 -84.5t-33 -84t-83 -33t-83.5 33z
M261 689.5q17 -18.5 43 -18.5q25 0 42 18.5t17 46.5t-17 47t-42 19t-42.5 -19t-17.5 -47t17 -46.5z" />
    <glyph glyph-name="utilde" unicode="&#x169;" horiz-adv-x="617" 
d="M540 0h-77v78q-21 -40 -72 -65t-111 -25q-57 0 -105 23.5t-76.5 70.5t-28.5 116v342h78v-328q0 -74 43.5 -114t106.5 -40q43 0 80.5 19t60.5 55t23 85v323h78v-540zM341.5 660q-19.5 7 -44.5 21q-19 10 -31 15t-25 5q-21 0 -35.5 -11.5t-14.5 -34.5h-74q0 48 29.5 78.5
t80.5 30.5q25 0 44 -7t43 -21q19 -11 31 -16t25 -5q21 0 32 10t11 36h73q0 -52 -27.5 -80t-73.5 -28q-24 0 -43.5 7z" />
    <glyph glyph-name="v" unicode="v" horiz-adv-x="539" 
d="M16 540h83l172 -456l171 456h82l-207 -540h-94z" />
    <glyph glyph-name="w" unicode="w" horiz-adv-x="800" 
d="M19 540h80l138 -451l115 451h96l116 -451l138 451h79l-170 -540h-90l-120 447l-121 -447h-91z" />
    <glyph glyph-name="wacute" unicode="&#x1e83;" horiz-adv-x="800" 
d="M19 540h80l138 -451l115 451h96l116 -451l138 451h79l-170 -540h-90l-120 447l-121 -447h-91zM315 660l120 119l53 -52l-120 -121z" />
    <glyph glyph-name="wcircumflex" unicode="&#x175;" horiz-adv-x="800" 
d="M19 540h80l138 -451l115 451h96l116 -451l138 451h79l-170 -540h-90l-120 447l-121 -447h-91zM282 639l150 95l98 -126l-75 11l-64 48l-75 -59z" />
    <glyph glyph-name="wdieresis" unicode="&#x1e85;" horiz-adv-x="800" 
d="M19 540h80l138 -451l115 451h96l116 -451l138 451h79l-170 -540h-90l-120 447l-121 -447h-91zM452 652q-16 16 -16 39t16 39.5t39 16.5t39 -16.5t16 -39.5t-16 -39t-39 -16t-39 16zM270 730.5q16 16.5 39 16.5t39 -16.5t16 -39.5t-16 -39t-39 -16t-39 16t-16 39t16 39.5z
" />
    <glyph glyph-name="wgrave" unicode="&#x1e81;" horiz-adv-x="800" 
d="M19 540h80l138 -451l115 451h96l116 -451l138 451h79l-170 -540h-90l-120 447l-121 -447h-91zM292 727l54 52l119 -119l-53 -54z" />
    <glyph glyph-name="x" unicode="x" horiz-adv-x="531" 
d="M217 269l-203 271h96l155 -210l160 210h93l-202 -266l208 -274h-95l-161 214l-163 -214h-98z" />
    <glyph glyph-name="y" unicode="y" horiz-adv-x="520" 
d="M140 -150.5q34 14.5 48 54.5l36 92l-211 544h80l171 -441l155 441h82l-237 -650q-19 -52 -44 -78.5t-63 -36.5t-101 -10v70q50 0 84 14.5z" />
    <glyph glyph-name="yacute" unicode="&#xfd;" horiz-adv-x="520" 
d="M140 -150.5q34 14.5 48 54.5l36 92l-211 544h80l171 -441l155 441h82l-237 -650q-19 -52 -44 -78.5t-63 -36.5t-101 -10v70q50 0 84 14.5zM171 660l120 119l53 -52l-120 -121z" />
    <glyph glyph-name="ycircumflex" unicode="&#x177;" horiz-adv-x="520" 
d="M140 -150.5q34 14.5 48 54.5l36 92l-211 544h80l171 -441l155 441h82l-237 -650q-19 -52 -44 -78.5t-63 -36.5t-101 -10v70q50 0 84 14.5zM138 639l150 95l98 -126l-75 11l-64 48l-75 -59z" />
    <glyph glyph-name="ydieresis" unicode="&#xff;" horiz-adv-x="520" 
d="M140 -150.5q34 14.5 48 54.5l36 92l-211 544h80l171 -441l155 441h82l-237 -650q-19 -52 -44 -78.5t-63 -36.5t-101 -10v70q50 0 84 14.5zM309 652q-16 16 -16 39t16 39.5t39 16.5t39 -16.5t16 -39.5t-16 -39t-39 -16t-39 16zM127 730.5q16 16.5 39 16.5t39 -16.5
t16 -39.5t-16 -39t-39 -16t-39 16t-16 39t16 39.5z" />
    <glyph glyph-name="ygrave" unicode="&#x1ef3;" horiz-adv-x="520" 
d="M140 -150.5q34 14.5 48 54.5l36 92l-211 544h80l171 -441l155 441h82l-237 -650q-19 -52 -44 -78.5t-63 -36.5t-101 -10v70q50 0 84 14.5zM148 727l54 52l119 -119l-53 -54z" />
    <glyph glyph-name="uni1EF9" unicode="&#x1ef9;" horiz-adv-x="520" 
d="M140 -150.5q34 14.5 48 54.5l36 92l-211 544h80l171 -441l155 441h82l-237 -650q-19 -52 -44 -78.5t-63 -36.5t-101 -10v70q50 0 84 14.5zM295.5 660q-19.5 7 -44.5 21q-19 10 -31 15t-25 5q-21 0 -35.5 -11.5t-14.5 -34.5h-74q0 48 29.5 78.5t80.5 30.5q25 0 44 -7
t43 -21q19 -11 31 -16t25 -5q21 0 32 10t11 36h73q0 -52 -27.5 -80t-73.5 -28q-24 0 -43.5 7z" />
    <glyph glyph-name="z" unicode="z" horiz-adv-x="503" 
d="M38 75l334 392h-332v73h423v-81l-332 -386h334v-73h-427v75z" />
    <glyph glyph-name="zacute" unicode="&#x17a;" horiz-adv-x="503" 
d="M38 75l334 392h-332v73h423v-81l-332 -386h334v-73h-427v75zM166 660l120 119l53 -52l-120 -121z" />
    <glyph glyph-name="zcaron" unicode="&#x17e;" horiz-adv-x="503" 
d="M38 75l334 392h-332v73h423v-81l-332 -386h334v-73h-427v75zM221 694l75 58l75 -10l-109 -116l-99 126l35 -30z" />
    <glyph glyph-name="zdotaccent" unicode="&#x17c;" horiz-adv-x="503" 
d="M38 75l334 392h-332v73h423v-81l-332 -386h334v-73h-427v75zM199 752h105v-102h-105v102z" />
    <glyph glyph-name="uni1E93" unicode="&#x1e93;" horiz-adv-x="503" 
d="M38 75l334 392h-332v73h423v-81l-332 -386h334v-73h-427v75zM213 -170.5q-16 16.5 -16 39.5t16 39t39 16t39 -16t16 -39t-16 -39.5t-39 -16.5t-39 16.5z" />
    <glyph glyph-name="germandbls.calt" horiz-adv-x="814" 
d="M89 752h630v-72l-249 -247q156 -15 228 -65.5t72 -150.5q0 -70 -32 -122t-89.5 -79.5t-132.5 -27.5q-69 0 -128.5 23.5t-96.5 73t-37 122.5h73q0 -72 57 -109t136 -37q80 0 125 39.5t45 111.5q0 55 -30 88t-96 50.5t-181 24.5v72l234 230h-449v-677h-79v752z" />
    <glyph glyph-name="uni013C.loclMAH" horiz-adv-x="233" 
d="M77 752h79v-752h-79v752zM176 -84v-108q0 -34 -22.5 -60t-79.5 -26v38q56 0 56 42h-69v114h115z" />
    <glyph glyph-name="uni0146.loclMAH" horiz-adv-x="617" 
d="M77 540h77v-78q21 40 72 65t111 25q57 0 105 -23.5t76.5 -70.5t28.5 -116v-342h-78v328q0 74 -43.5 114t-106.5 40q-43 0 -80.5 -19t-60.5 -55t-23 -85v-323h-78v540zM371 -84v-108q0 -34 -22.5 -60t-79.5 -26v38q56 0 56 42h-69v114h115z" />
    <glyph glyph-name="a.ss05" horiz-adv-x="612" 
d="M156 26q-53 38 -83.5 104t-30.5 148t30.5 144t84 96t121.5 34q55 0 106.5 -24t74.5 -79v91h77v-540h-77v92q-23 -53 -75.5 -78.5t-107.5 -25.5q-67 0 -120 38zM141 165q21 -49 59 -76.5t88 -27.5t88 27t59 74.5t21 107.5q0 61 -21.5 108t-60.5 73.5t-90 26.5
q-74 0 -119 -53.5t-45 -147.5q0 -63 21 -112z" />
    <glyph glyph-name="aacute.ss05" horiz-adv-x="612" 
d="M156 26q-53 38 -83.5 104t-30.5 148t30.5 144t84 96t121.5 34q55 0 106.5 -24t74.5 -79v91h77v-540h-77v92q-23 -53 -75.5 -78.5t-107.5 -25.5q-67 0 -120 38zM141 165q21 -49 59 -76.5t88 -27.5t88 27t59 74.5t21 107.5q0 61 -21.5 108t-60.5 73.5t-90 26.5
q-74 0 -119 -53.5t-45 -147.5q0 -63 21 -112zM218 660l120 119l53 -52l-120 -121z" />
    <glyph glyph-name="abreve.ss05" horiz-adv-x="612" 
d="M156 26q-53 38 -83.5 104t-30.5 148t30.5 144t84 96t121.5 34q55 0 106.5 -24t74.5 -79v91h77v-540h-77v92q-23 -53 -75.5 -78.5t-107.5 -25.5q-67 0 -120 38zM141 165q21 -49 59 -76.5t88 -27.5t88 27t59 74.5t21 107.5q0 61 -21.5 108t-60.5 73.5t-90 26.5
q-74 0 -119 -53.5t-45 -147.5q0 -63 21 -112zM202.5 653q-37.5 37 -37.5 99h68q0 -33 18.5 -52.5t50.5 -19.5t51 19.5t19 52.5h69q0 -62 -38 -99t-101 -37q-62 0 -99.5 37z" />
    <glyph glyph-name="uni01CE.ss05" horiz-adv-x="612" 
d="M156 26q-53 38 -83.5 104t-30.5 148t30.5 144t84 96t121.5 34q55 0 106.5 -24t74.5 -79v91h77v-540h-77v92q-23 -53 -75.5 -78.5t-107.5 -25.5q-67 0 -120 38zM141 165q21 -49 59 -76.5t88 -27.5t88 27t59 74.5t21 107.5q0 61 -21.5 108t-60.5 73.5t-90 26.5
q-74 0 -119 -53.5t-45 -147.5q0 -63 21 -112zM273 694l75 58l75 -10l-109 -116l-99 126l35 -30z" />
    <glyph glyph-name="acircumflex.ss05" horiz-adv-x="612" 
d="M156 26q-53 38 -83.5 104t-30.5 148t30.5 144t84 96t121.5 34q55 0 106.5 -24t74.5 -79v91h77v-540h-77v92q-23 -53 -75.5 -78.5t-107.5 -25.5q-67 0 -120 38zM141 165q21 -49 59 -76.5t88 -27.5t88 27t59 74.5t21 107.5q0 61 -21.5 108t-60.5 73.5t-90 26.5
q-74 0 -119 -53.5t-45 -147.5q0 -63 21 -112zM185 639l150 95l98 -126l-75 11l-64 48l-75 -59z" />
    <glyph glyph-name="adieresis.ss05" horiz-adv-x="612" 
d="M156 26q-53 38 -83.5 104t-30.5 148t30.5 144t84 96t121.5 34q55 0 106.5 -24t74.5 -79v91h77v-540h-77v92q-23 -53 -75.5 -78.5t-107.5 -25.5q-67 0 -120 38zM141 165q21 -49 59 -76.5t88 -27.5t88 27t59 74.5t21 107.5q0 61 -21.5 108t-60.5 73.5t-90 26.5
q-74 0 -119 -53.5t-45 -147.5q0 -63 21 -112zM355 652q-16 16 -16 39t16 39.5t39 16.5t39 -16.5t16 -39.5t-16 -39t-39 -16t-39 16zM173 730.5q16 16.5 39 16.5t39 -16.5t16 -39.5t-16 -39t-39 -16t-39 16t-16 39t16 39.5z" />
    <glyph glyph-name="uni1EA1.ss05" horiz-adv-x="612" 
d="M156 26q-53 38 -83.5 104t-30.5 148t30.5 144t84 96t121.5 34q55 0 106.5 -24t74.5 -79v91h77v-540h-77v92q-23 -53 -75.5 -78.5t-107.5 -25.5q-67 0 -120 38zM141 165q21 -49 59 -76.5t88 -27.5t88 27t59 74.5t21 107.5q0 61 -21.5 108t-60.5 73.5t-90 26.5
q-74 0 -119 -53.5t-45 -147.5q0 -63 21 -112zM285 -170.5q-16 16.5 -16 39.5t16 39t39 16t39 -16t16 -39t-16 -39.5t-39 -16.5t-39 16.5z" />
    <glyph glyph-name="agrave.ss05" horiz-adv-x="612" 
d="M156 26q-53 38 -83.5 104t-30.5 148t30.5 144t84 96t121.5 34q55 0 106.5 -24t74.5 -79v91h77v-540h-77v92q-23 -53 -75.5 -78.5t-107.5 -25.5q-67 0 -120 38zM141 165q21 -49 59 -76.5t88 -27.5t88 27t59 74.5t21 107.5q0 61 -21.5 108t-60.5 73.5t-90 26.5
q-74 0 -119 -53.5t-45 -147.5q0 -63 21 -112zM195 727l54 52l119 -119l-53 -54z" />
    <glyph glyph-name="amacron.ss05" horiz-adv-x="612" 
d="M156 26q-53 38 -83.5 104t-30.5 148t30.5 144t84 96t121.5 34q55 0 106.5 -24t74.5 -79v91h77v-540h-77v92q-23 -53 -75.5 -78.5t-107.5 -25.5q-67 0 -120 38zM141 165q21 -49 59 -76.5t88 -27.5t88 27t59 74.5t21 107.5q0 61 -21.5 108t-60.5 73.5t-90 26.5
q-74 0 -119 -53.5t-45 -147.5q0 -63 21 -112zM184 713h240v-67h-240v67z" />
    <glyph glyph-name="aogonek.ss05" horiz-adv-x="612" 
d="M156 26q-53 38 -83.5 104t-30.5 148t30.5 144t84 96t121.5 34q55 0 106.5 -24t74.5 -79v91h77v-540h-45q-38 -18 -60 -46t-22 -58q0 -27 19 -44.5t60 -17.5v-59q-58 0 -98 22t-40 78q0 45 28.5 81t80.5 57v79q-23 -53 -75.5 -78.5t-107.5 -25.5q-67 0 -120 38zM141 165
q21 -49 59 -76.5t88 -27.5t88 27t59 74.5t21 107.5q0 61 -21.5 108t-60.5 73.5t-90 26.5q-74 0 -119 -53.5t-45 -147.5q0 -63 21 -112z" />
    <glyph glyph-name="aring.ss05" horiz-adv-x="612" 
d="M156 26q-53 38 -83.5 104t-30.5 148t30.5 144t84 96t121.5 34q55 0 106.5 -24t74.5 -79v91h77v-540h-77v92q-23 -53 -75.5 -78.5t-107.5 -25.5q-67 0 -120 38zM141 165q21 -49 59 -76.5t88 -27.5t88 27t59 74.5t21 107.5q0 61 -21.5 108t-60.5 73.5t-90 26.5
q-74 0 -119 -53.5t-45 -147.5q0 -63 21 -112zM220.5 652q-33.5 33 -33.5 84t33.5 84.5t83.5 33.5t83 -33.5t33 -84.5t-33 -84t-83 -33t-83.5 33zM261 689.5q17 -18.5 43 -18.5q25 0 42 18.5t17 46.5t-17 47t-42 19t-42.5 -19t-17.5 -47t17 -46.5z" />
    <glyph glyph-name="atilde.ss05" horiz-adv-x="612" 
d="M156 26q-53 38 -83.5 104t-30.5 148t30.5 144t84 96t121.5 34q55 0 106.5 -24t74.5 -79v91h77v-540h-77v92q-23 -53 -75.5 -78.5t-107.5 -25.5q-67 0 -120 38zM141 165q21 -49 59 -76.5t88 -27.5t88 27t59 74.5t21 107.5q0 61 -21.5 108t-60.5 73.5t-90 26.5
q-74 0 -119 -53.5t-45 -147.5q0 -63 21 -112zM342.5 660q-19.5 7 -44.5 21q-19 10 -31 15t-25 5q-21 0 -35.5 -11.5t-14.5 -34.5h-74q0 48 29.5 78.5t80.5 30.5q25 0 44 -7t43 -21q19 -11 31 -16t25 -5q21 0 32 10t11 36h73q0 -52 -27.5 -80t-73.5 -28q-24 0 -43.5 7z" />
    <glyph glyph-name="cdotaccent.ss06" horiz-adv-x="583" 
d="M165 22.5q-60 34.5 -92.5 98.5t-32.5 149t32.5 148.5t92.5 98t140 34.5t145.5 -44t94.5 -117l-73 -20q-22 50 -67.5 80t-99.5 30q-86 0 -137 -57t-51 -153q0 -97 51 -154.5t137 -57.5q61 0 108 36t68 98l74 -17q-26 -86 -93.5 -136.5t-156.5 -50.5q-80 0 -140 34.5z
M256 641.5q-20 20.5 -20 48.5q0 29 20 48.5t49 19.5q28 0 47.5 -20t19.5 -48t-19.5 -48.5t-47.5 -20.5q-29 0 -49 20.5z" />
    <glyph glyph-name="edotaccent.ss06" horiz-adv-x="595" 
d="M169.5 24.5q-60.5 36.5 -95 100.5t-34.5 143q0 85 33 149.5t91.5 99.5t133.5 35q119 0 190.5 -77.5t71.5 -233.5h-442q0 -52 25.5 -94.5t68.5 -66.5t93 -24q58 0 100.5 27.5t67.5 75.5l68 -24q-32 -68 -93.5 -107.5t-142.5 -39.5q-75 0 -135.5 36.5zM459 394.5
q-20 39.5 -61 64.5t-100 25q-56 0 -96.5 -25.5t-62 -65.5t-21.5 -81h361q0 43 -20 82.5zM247 641.5q-20 20.5 -20 48.5q0 29 20 48.5t49 19.5q28 0 47.5 -20t19.5 -48t-19.5 -48.5t-47.5 -20.5q-29 0 -49 20.5z" />
    <glyph glyph-name="gdotaccent.ss06" horiz-adv-x="609" 
d="M158.5 -193.5q-58.5 36.5 -90.5 111.5l70 30q23 -54 66.5 -78.5t91.5 -24.5q43 0 80 19.5t59.5 58t22.5 93.5v78q-25 -47 -72.5 -68.5t-95.5 -21.5q-72 0 -129 36.5t-88.5 99t-31.5 139.5q0 78 31.5 140t88 97.5t128.5 35.5q48 0 97.5 -21t71.5 -63v72h76v-525
q0 -77 -30.5 -132t-85 -84t-124.5 -29q-77 0 -135.5 36.5zM141 177.5q22 -45.5 61 -71.5t87 -26q49 0 87 26t58.5 72.5t20.5 106.5q0 90 -44 141.5t-117 51.5q-50 0 -90 -25.5t-62.5 -70.5t-22.5 -102t22 -102.5zM245 641.5q-20 20.5 -20 48.5q0 29 20 48.5t49 19.5
q28 0 47.5 -20t19.5 -48t-19.5 -48.5t-47.5 -20.5q-29 0 -49 20.5z" />
    <glyph glyph-name="i.ss06" horiz-adv-x="234" 
d="M77 540h80v-540h-80v540zM69.5 641.5q-20.5 20.5 -20.5 48.5t20 48t49 20q28 0 48 -20t20 -48t-20 -48.5t-48 -20.5t-48.5 20.5z" />
    <glyph glyph-name="j.ss06" horiz-adv-x="234" 
d="M14 -151q30 0 46.5 19.5t16.5 65.5v606h79v-614q0 -81 -33 -118.5t-91 -37.5q-32 0 -68 9v79q32 -9 50 -9zM68 641.5q-20 20.5 -20 48.5q0 29 20 48.5t49 19.5q28 0 47.5 -20t19.5 -48t-19.5 -48.5t-47.5 -20.5q-29 0 -49 20.5z" />
    <glyph glyph-name="ldot.ss06" horiz-adv-x="372" 
d="M77 752h79v-752h-79v752zM264 319q-16 16 -16 39t16 38.5t39 15.5q22 0 37.5 -16t15.5 -38q0 -23 -15.5 -39t-37.5 -16q-23 0 -39 16z" />
    <glyph glyph-name="uni1E45.ss06" horiz-adv-x="617" 
d="M77 540h77v-78q21 40 72 65t111 25q57 0 105 -23.5t76.5 -70.5t28.5 -116v-342h-78v328q0 74 -43.5 114t-106.5 40q-43 0 -80.5 -19t-60.5 -55t-23 -85v-323h-78v540zM257 641.5q-20 20.5 -20 48.5q0 29 20 48.5t49 19.5q28 0 47.5 -20t19.5 -48t-19.5 -48.5t-47.5 -20.5
q-29 0 -49 20.5z" />
    <glyph glyph-name="zdotaccent.ss06" horiz-adv-x="503" 
d="M38 75l334 392h-332v73h423v-81l-332 -386h334v-73h-427v75zM203 641.5q-20 20.5 -20 48.5q0 29 20 48.5t49 19.5q28 0 47.5 -20t19.5 -48t-19.5 -48.5t-47.5 -20.5q-29 0 -49 20.5z" />
    <glyph glyph-name="ij.ss08" horiz-adv-x="502" 
d="M118 35.5q-47 45.5 -47 125.5v379h78v-366q0 -108 104 -108q35 0 64 24.5t29 64.5v385h79v-615q0 -81 -33.5 -118.5t-93.5 -37.5q-30 0 -65 9v78q27 -8 49 -8q64 0 64 85v87q-39 -30 -105 -30q-76 0 -123 45.5zM54 752h105v-104h-105v104zM330 752h105v-104h-105v104z
" />
    <glyph glyph-name="a.ss10" horiz-adv-x="571" 
d="M90.5 30.5q-51.5 42.5 -51.5 111.5q0 110 134 152l64 20q90 27 132 46.5t42 48.5q0 30 -34.5 50.5t-96.5 20.5q-57 0 -97 -26t-54 -65l-71 24q21 64 81.5 101.5t142.5 37.5q99 0 154.5 -42.5t55.5 -126.5v-279q0 -19 6.5 -29.5t25.5 -10.5l12 1v-69q-12 -3 -26 -3
q-34 0 -58.5 18.5t-24.5 54.5q-37 -37 -93 -57.5t-109 -20.5q-83 0 -134.5 42.5zM332.5 80q56.5 26 86.5 64v163q-37 -20 -73.5 -33.5t-90.5 -29.5q-51 -15 -78 -25.5t-44 -29t-17 -48.5q0 -40 29.5 -63.5t77.5 -23.5q53 0 109.5 26z" />
    <glyph glyph-name="o_k" horiz-adv-x="843" 
d="M171.5 326q-49.5 30 -77 85t-27.5 127q0 74 29 129t81 84t120 29h261q64 0 113.5 -30t77 -85t27.5 -127q0 -74 -29 -129t-81 -84t-120 -29h-261q-64 0 -113.5 30zM235 462.5q-29 30.5 -29 77.5q0 46 28.5 77.5t73.5 31.5t73.5 -31.5t28.5 -77.5q0 -47 -29 -77.5
t-73 -30.5t-73 30.5zM351.5 490.5q17.5 19.5 17.5 49.5q0 31 -17 50t-44 19q-26 0 -43 -19t-17 -50q0 -30 17 -49.5t43 -19.5t43.5 19.5zM673.5 404.5q45.5 54.5 45.5 133.5t-45.5 133.5t-140.5 54.5h-241q-83 0 -125 -52.5t-42 -135.5q0 -49 18 -92t55.5 -69.5t93.5 -26.5
h241q95 0 140.5 54.5zM457 644h40v-82l86 82h56l-89 -84l92 -123h-49l-72 95l-24 -22v-73h-40v207z" />
    <glyph glyph-name="w_w_w" horiz-adv-x="2165" 
d="M19 540h80l138 -451l115 451h96l116 -451l138 449l-1 2h80l138 -451l115 451h96l116 -451l138 451h80l138 -451l115 451h96l116 -451l138 451h79l-170 -540h-90l-120 447l-121 -447h-91l-130 415l-131 -415h-90l-120 447l-121 -447h-91l-130 413l-130 -413h-90l-120 447
l-121 -447h-91z" />
    <glyph glyph-name="x_l" horiz-adv-x="903" 
d="M348 542l-76 99h52l51 -67l50 67h53l-77 -99l81 -105h-53l-54 74l-54 -74h-53zM98 667q29 55 81 84t120 29h321q64 0 113.5 -30t77 -85t27.5 -127q0 -74 -29 -129t-81 -84t-120 -29h-321q-64 0 -113.5 30t-77 85t-27.5 127q0 74 29 129zM145 446q18 -43 55.5 -69.5
t93.5 -26.5h301q95 0 140.5 54.5t45.5 133.5t-45.5 133.5t-140.5 54.5h-301q-83 0 -125 -52.5t-42 -135.5q0 -49 18 -92zM511 641h41v-166h109v-37h-150v203z" />
    <glyph glyph-name="x_m" horiz-adv-x="903" 
d="M160.5 326q-49.5 30 -77 85t-27.5 127q0 74 29 129t81 84t120 29h321q64 0 113.5 -30t77 -85t27.5 -127q0 -74 -29 -129t-81 -84t-120 -29h-321q-64 0 -113.5 30zM292 542l-76 100h53l50 -68l50 68h53l-77 -100l81 -105h-53l-54 74l-54 -74h-53zM722.5 404.5
q45.5 54.5 45.5 133.5t-45.5 133.5t-140.5 54.5h-301q-83 0 -125 -52.5t-42 -135.5q0 -49 18 -92t55.5 -69.5t93.5 -26.5h301q95 0 140.5 54.5zM456 642h45l54 -151l53 151h45v-205h-43v107l-38 -107h-34l-40 109v-109h-42v205z" />
    <glyph glyph-name="x_s" horiz-adv-x="903" 
d="M326 542l-76 100h53l50 -68l50 68h53l-77 -100l81 -105h-53l-54 74l-54 -74h-53zM96 667q29 55 81 84t120 29h321q64 0 113.5 -30t77 -85t27.5 -127q0 -74 -29 -129t-81 -84t-120 -29h-321q-64 0 -113.5 30t-77 85t-27.5 127q0 74 29 129zM143 446q18 -43 55.5 -69.5
t93.5 -26.5h301q95 0 140.5 54.5t45.5 133.5t-45.5 133.5t-140.5 54.5h-301q-83 0 -125 -52.5t-42 -135.5q0 -49 18 -92zM548 475.5q18 -6.5 33 -6.5q17 0 32.5 5.5t15.5 21.5q0 26 -50 26q-81 0 -81 61q0 32 24 48t57 16q34 0 60 -17t26 -51h-40q0 18 -14.5 24t-31.5 6
q-15 0 -28.5 -6.5t-13.5 -21.5q0 -11 11 -16t36 -5q85 0 85 -65q0 -32 -26.5 -48t-61.5 -16q-34 0 -59.5 17.5t-31.5 55.5h40q0 -22 18 -28.5z" />
    <glyph glyph-name="iacute_j_acutecomb.ss08" horiz-adv-x="502" 
d="M170 779l54 -52l-120 -121l-53 54zM437 779l53 -52l-119 -121l-54 54zM118 46.5q-47 45.5 -47 125.5v368h78v-357q0 -105 104 -105q35 0 64 23.5t29 65.5v373h79v-615q0 -81 -33 -118.5t-92 -37.5q-31 0 -67 9v78q27 -8 50 -8q30 0 46.5 19.5t16.5 65.5v98
q-39 -30 -105 -30q-76 0 -123 45.5z" />
    <glyph glyph-name="ordfeminine" unicode="&#xaa;" horiz-adv-x="427" 
d="M87.5 419.5q-33.5 27.5 -33.5 74.5q0 77 92 104l44 11q59 15 86.5 27.5t27.5 36.5q0 20 -23 35.5t-64 15.5q-37 0 -64 -19t-36 -45l-51 17q17 48 57 71t96 23q66 0 103.5 -32.5t37.5 -93.5v-245h-52v41q-24 -24 -59.5 -36.5t-66.5 -12.5q-61 0 -94.5 27.5zM255.5 454
q34.5 15 53.5 45v106q-27 -16 -53.5 -24.5t-61.5 -16.5q-43 -9 -65.5 -24.5t-22.5 -43.5q1 -57 76 -57q39 0 73.5 15z" />
    <glyph glyph-name="ordmasculine" unicode="&#xba;" horiz-adv-x="461" 
d="M142 433q-40 23 -63 63.5t-23 90.5t23 91t63 64t89 23t89 -23t63 -64t23 -91t-23 -90.5t-63 -63.5t-89 -23t-89 23zM152 503.5q32 -33.5 79 -33.5q46 0 78.5 33.5t32.5 83.5t-32.5 84t-78.5 34q-47 0 -79 -34t-32 -84t32 -83.5z" />
    <glyph glyph-name="uni03A9" unicode="&#x3a9;" horiz-adv-x="822" 
d="M259 71v2q-72 41 -112 119.5t-40 180.5q0 104 40.5 185.5t114 126.5t168.5 45q96 0 169.5 -45t114.5 -126.5t41 -185.5q0 -102 -40 -180.5t-112 -119.5v-2h147v-71h-271v71q93 24 140.5 105t47.5 195q0 129 -62.5 207t-174.5 78t-173.5 -78t-61.5 -207
q0 -113 48.5 -194.5t139.5 -105.5v-71h-271v71h147z" />
    <glyph glyph-name="pi" unicode="&#x3c0;" horiz-adv-x="624" 
d="M451 20q-29 24 -29 76v361h-220v-457h-78v457h-80v59h539v-59h-84v-348q0 -26 13 -37.5t33 -11.5t38 8l3 -63q-24 -9 -57 -9q-49 0 -78 24z" />
    <glyph glyph-name="zero" unicode="0" horiz-adv-x="631" 
d="M193.5 17q-55.5 29 -88 81t-32.5 118v330q0 63 33.5 112.5t89 77.5t120.5 28q66 0 121.5 -29.5t88.5 -82t33 -118.5v-330q0 -63 -33 -112t-89 -76.5t-121 -27.5q-67 0 -122.5 29zM173.5 130q22.5 -34 60 -52t82.5 -18q44 0 82 18t60.5 52t22.5 80v331q0 46 -22.5 79.5
t-60.5 51t-82 17.5q-69 0 -117 -39.5t-48 -108.5v-331q0 -46 22.5 -80z" />
    <glyph glyph-name="one" unicode="1" horiz-adv-x="314" 
d="M148 621h-121v72h66q21 0 37 10.5t16 33.5v15h78v-752h-76v621z" />
    <glyph glyph-name="two" unicode="2" horiz-adv-x="593" 
d="M109.5 189q59.5 90 184.5 180q86 61 126.5 105t40.5 91q0 64 -42 94.5t-120 30.5q-83 0 -126 -46t-43 -114h-78q0 72 31.5 125t88.5 81t131 28q113 0 174 -54t61 -145q0 -62 -40.5 -118t-140.5 -125q-87 -61 -147 -131.5t-60 -114.5h393v-76h-493q0 99 59.5 189z" />
    <glyph glyph-name="three" unicode="3" horiz-adv-x="585" 
d="M119.5 38.5q-66.5 50.5 -69.5 146.5l79 4q1 -63 45.5 -96.5t117.5 -33.5q68 0 115.5 36.5t47.5 104.5q0 46 -22 82t-59.5 56t-82.5 20h-102v71h103q39 0 72 19.5t52.5 51.5t19.5 70q0 60 -40 90t-105 30q-62 0 -105.5 -26.5t-44.5 -85.5h-75q0 60 30.5 102t81.5 63
t113 21q98 0 160 -48.5t62 -139.5q0 -41 -18 -80t-46.5 -65.5t-59.5 -32.5q38 -8 71.5 -35.5t54 -70t20.5 -93.5q0 -66 -31.5 -113.5t-86.5 -72.5t-125 -25q-106 0 -172.5 50.5z" />
    <glyph glyph-name="four" unicode="4" horiz-adv-x="600" 
d="M391 169h-359v102l338 481h99v-509h93v-74h-93v-169h-78v169zM391 243v411l-289 -411h289z" />
    <glyph glyph-name="five" unicode="5" horiz-adv-x="599" 
d="M138 33.5q-69 45.5 -97 133.5l75 19q23 -65 70 -94t117 -29q53 0 93 24t61.5 66t21.5 93q0 86 -43.5 133t-131.5 47q-52 0 -98.5 -27t-64.5 -63l-72 30l24 386h416v-75h-345l-15 -239q29 29 72.5 45.5t88.5 16.5q76 0 131.5 -32t85 -89t29.5 -132q0 -71 -30.5 -130
t-87.5 -94t-134 -35q-97 0 -166 45.5z" />
    <glyph glyph-name="six" unicode="6" horiz-adv-x="616" 
d="M195.5 20q-56.5 32 -90.5 90t-34 132v286q0 114 65.5 175t179.5 61q67 0 120.5 -24.5t84.5 -71.5t31 -112h-74q0 58 -43.5 96t-120.5 38q-90 0 -129 -48t-39 -128v-106q27 48 74 67.5t98 19.5q69 0 125 -32t87.5 -89.5t31.5 -131.5t-33 -132t-89 -90t-122 -32t-122.5 32z
M170 149q24 -41 63 -64t84 -23t84.5 23t63.5 64t24 93q0 53 -23 94.5t-62 64.5t-87 23t-87 -23t-61.5 -64.5t-22.5 -94.5q0 -52 24 -93z" />
    <glyph glyph-name="seven" unicode="7" horiz-adv-x="548" 
d="M439 677h-422v75h505v-82l-284 -670h-85z" />
    <glyph glyph-name="eight" unicode="8" horiz-adv-x="605" 
d="M176.5 15q-58.5 27 -93.5 77.5t-35 117.5q0 122 126 196q-93 67 -93 161q0 57 30.5 102t81 70t110.5 25q59 0 110 -25t81.5 -70t30.5 -102q0 -95 -93 -162q124 -72 124 -195q0 -66 -33.5 -116.5t-91.5 -78t-129 -27.5q-67 0 -125.5 27zM151 128.5q24 -35.5 64 -54.5
t87 -19t87.5 19t64 54.5t23.5 82.5t-25 83t-65.5 55t-84.5 19t-84.5 -19t-65.5 -55t-25 -83t24 -82.5zM198.5 473q39.5 -35 104.5 -35q63 0 103.5 35.5t40.5 92.5q0 38 -20 68t-53 46.5t-71 16.5t-71 -16.5t-53 -46.5t-20 -68q0 -58 39.5 -93z" />
    <glyph glyph-name="nine" unicode="9" horiz-adv-x="616" 
d="M420.5 732q56.5 -32 90.5 -90t34 -132v-286q0 -114 -65.5 -175t-179.5 -61q-67 0 -120.5 24.5t-84.5 71.5t-31 112h74q0 -58 43.5 -96t120.5 -38q90 0 129 48t39 128v106q-27 -48 -74 -67.5t-98 -19.5q-69 0 -125 32t-87.5 89.5t-31.5 131.5t33 132t89 90t122 32
t122.5 -32zM446 603q-24 41 -63 64t-84 23t-84.5 -23t-63.5 -64t-24 -93q0 -53 23 -94.5t62 -64.5t87 -23t87 23t61.5 64.5t22.5 94.5q0 52 -24 93z" />
    <glyph glyph-name="zero.zero" horiz-adv-x="631" 
d="M193.5 17q-55.5 29 -88 81t-32.5 118v330q0 63 33.5 112.5t89 77.5t120.5 28q66 0 121.5 -29.5t88.5 -82t33 -118.5v-330q0 -63 -33 -112t-89 -76.5t-121 -27.5q-67 0 -122.5 29zM183 117l226 549q-41 23 -93 23q-69 0 -117 -39.5t-48 -108.5v-331q0 -55 32 -93zM316 60
q44 0 82 18t60.5 52t22.5 80v331q0 49 -27 86l-225 -547q38 -20 87 -20z" />
    <glyph glyph-name="six.alt" horiz-adv-x="567" 
d="M159.5 23q-57.5 33 -86 89t-28.5 126q0 83 40 171q36 78 73.5 142.5t93.5 154.5q28 43 29 47h88l-171 -283q48 23 100 23q70 0 125.5 -32.5t86.5 -89t31 -126.5q0 -75 -32.5 -133t-87.5 -90t-121 -32q-83 0 -140.5 33zM377 85q40 23 64.5 65t24.5 95q0 49 -23 89.5
t-61.5 63t-85.5 22.5q-80 0 -127.5 -53t-47.5 -136q0 -76 48.5 -122.5t123.5 -46.5q44 0 84 23z" />
    <glyph glyph-name="nine.alt" horiz-adv-x="567" 
d="M407.5 729q57.5 -33 86 -89t28.5 -126q0 -83 -40 -171q-36 -78 -73.5 -142.5t-93.5 -154.5q-28 -43 -29 -47h-88l171 283q-48 -23 -100 -23q-70 0 -125.5 32.5t-86.5 89t-31 126.5q0 75 32.5 133t87.5 90t121 32q83 0 140.5 -33zM190 667q-40 -23 -64.5 -65t-24.5 -95
q0 -49 23 -89.5t61.5 -63t85.5 -22.5q80 0 127.5 53t47.5 136q0 76 -48.5 122.5t-123.5 46.5q-44 0 -84 -23z" />
    <glyph glyph-name="uni24EA" unicode="&#x24ea;" horiz-adv-x="760" 
d="M205 0q-78 45 -121.5 124t-43.5 178t42.5 179t120 126.5t178.5 46.5t178 -46.5t119 -127t42 -178.5q0 -99 -43.5 -178t-120.5 -124t-175 -45t-176 45zM142.5 156q35.5 -65 98 -101.5t140.5 -36.5q77 0 139.5 36.5t98.5 101t36 147.5q0 82 -34 147t-96.5 102.5
t-143.5 37.5t-143.5 -37.5t-96.5 -102.5t-34 -147t35.5 -147zM275.5 486.5q35.5 43.5 106.5 43.5q70 0 106 -44t36 -148v-64q0 -102 -36.5 -146.5t-105.5 -44.5q-70 0 -106 45t-36 146v64q0 105 35.5 148.5zM317 178l105 287q-14 7 -38 7q-43 0 -62 -29t-19 -105v-64
q0 -67 14 -96zM379 141q32 0 49.5 11.5t25 40t7.5 81.5v64q0 64 -13 94l-108 -284q15 -7 39 -7z" />
    <glyph glyph-name="uni2460" unicode="&#x2460;" horiz-adv-x="760" 
d="M205 0q-78 45 -121.5 124t-43.5 178t42.5 179t120 126.5t178.5 46.5t178 -46.5t119 -127t42 -178.5q0 -99 -43.5 -178t-120.5 -124t-175 -45t-176 45zM142.5 156q35.5 -65 98 -101.5t140.5 -36.5q77 0 139.5 36.5t98.5 101t36 147.5q0 82 -34 147t-96.5 102.5
t-143.5 37.5t-143.5 -37.5t-96.5 -102.5t-34 -147t35.5 -147zM297 488l35 1q29 0 29 24v3h60v-424h-58v342h-66v54z" />
    <glyph glyph-name="uni2461" unicode="&#x2461;" horiz-adv-x="762" 
d="M215 0q-78 45 -121.5 124t-43.5 178t42.5 179t120 126.5t178.5 46.5t178 -46.5t119 -127t42 -178.5q0 -99 -43.5 -178t-120.5 -124t-175 -45t-176 45zM152.5 156q35.5 -65 98 -101.5t140.5 -36.5q77 0 139.5 36.5t98.5 101t36 147.5q0 82 -34 147t-96.5 102.5
t-143.5 37.5t-143.5 -37.5t-96.5 -102.5t-34 -147t35.5 -147zM301.5 483.5q36.5 32.5 94.5 32.5q60 0 92.5 -30.5t32.5 -79.5q0 -41 -17.5 -70.5t-73.5 -66.5q-44 -29 -64 -51t-31 -47h189v-55h-264q4 57 34.5 104t96.5 88q46 29 62 48.5t16 48.5q0 28 -19.5 43.5
t-51.5 15.5q-37 0 -58 -21t-27 -57l-54 8q6 57 42.5 89.5z" />
    <glyph glyph-name="uni2462" unicode="&#x2462;" horiz-adv-x="760" 
d="M205 0q-78 45 -121.5 124t-43.5 178t42.5 179t120 126.5t178.5 46.5t178 -46.5t119 -127t42 -178.5q0 -99 -43.5 -178t-120.5 -124t-175 -45t-176 45zM142.5 156q35.5 -65 98 -101.5t140.5 -36.5q77 0 139.5 36.5t98.5 101t36 147.5q0 82 -34 147t-96.5 102.5
t-143.5 37.5t-143.5 -37.5t-96.5 -102.5t-34 -147t35.5 -147zM331.5 167q23.5 -17 53.5 -17q36 0 58.5 20t22.5 53q0 37 -20.5 56.5t-59.5 19.5h-59v52h61q30 0 47.5 16t17.5 42t-17 41t-46 15q-33 0 -55 -17.5t-26 -45.5l-55 8q8 50 43.5 79t90.5 29q57 0 89 -29t32 -77
q0 -26 -14.5 -48t-40.5 -35q33 -12 51 -39t18 -66q0 -56 -38 -91t-100 -35q-54 0 -91.5 29t-49.5 84l57 10q7 -37 30.5 -54z" />
    <glyph glyph-name="uni2463" unicode="&#x2463;" horiz-adv-x="760" 
d="M205 0q-78 45 -121.5 124t-43.5 178t42.5 179t120 126.5t178.5 46.5t178 -46.5t119 -127t42 -178.5q0 -99 -43.5 -178t-120.5 -124t-175 -45t-176 45zM142.5 156q35.5 -65 98 -101.5t140.5 -36.5q77 0 139.5 36.5t98.5 101t36 147.5q0 82 -34 147t-96.5 102.5
t-143.5 37.5t-143.5 -37.5t-96.5 -102.5t-34 -147t35.5 -147zM218 255l187 260h63v-267h42v-50h-42v-93h-56v93h-194v57zM415 248v192l-139 -192h139z" />
    <glyph glyph-name="uni2464" unicode="&#x2464;" horiz-adv-x="760" 
d="M205 0q-78 45 -121.5 124t-43.5 178t42.5 179t120 126.5t178.5 46.5t178 -46.5t119 -127t42 -178.5q0 -99 -43.5 -178t-120.5 -124t-175 -45t-176 45zM142.5 156q35.5 -65 98 -101.5t140.5 -36.5q77 0 139.5 36.5t98.5 101t36 147.5q0 82 -34 147t-96.5 102.5
t-143.5 37.5t-143.5 -37.5t-96.5 -102.5t-34 -147t35.5 -147zM332.5 159.5q22.5 -14.5 50.5 -14.5q40 0 62 24t22 65q0 39 -23 62t-61 23q-23 0 -43 -11.5t-29 -29.5l-52 22l13 203h227v-52h-178l-8 -101q32 23 77 23q59 0 96.5 -39t37.5 -100q0 -64 -38.5 -103.5
t-101.5 -39.5q-51 0 -88 25t-53 74l55 14q12 -30 34.5 -44.5z" />
    <glyph glyph-name="uni2465" unicode="&#x2465;" horiz-adv-x="760" 
d="M205 0q-78 45 -121.5 124t-43.5 178t42.5 179t120 126.5t178.5 46.5t178 -46.5t119 -127t42 -178.5q0 -99 -43.5 -178t-120.5 -124t-175 -45t-176 45zM142.5 156q35.5 -65 98 -101.5t140.5 -36.5q77 0 139.5 36.5t98 101t35.5 147.5q0 82 -34 147.5t-96 102.5t-143 37
t-143.5 -37.5t-96.5 -102.5t-34 -147t35.5 -147zM288.5 482.5q36.5 35.5 96.5 35.5q54 0 89 -29t42 -82l-56 -6q-9 64 -76 64q-37 0 -57.5 -20t-20.5 -58v-42q33 27 81 27q57 0 94 -38.5t37 -98.5q0 -39 -18 -70.5t-48 -49t-65 -17.5q-55 0 -94 38.5t-40 98.5l-1 151
q0 61 36.5 96.5zM329 175.5q24 -24.5 56 -24.5t56 24t24 61q0 36 -23 60t-57 24q-33 0 -56.5 -24t-23.5 -60t24 -60.5z" />
    <glyph glyph-name="uni2466" unicode="&#x2466;" horiz-adv-x="760" 
d="M205 0q-78 45 -121.5 124t-43.5 178t42.5 179t120 126.5t178.5 46.5t178 -46.5t119 -127t42 -178.5q0 -99 -43.5 -178t-120.5 -124t-175 -45t-176 45zM142.5 156q35.5 -65 98 -101.5t140.5 -36.5q77 0 139.5 36.5t98.5 101t36 147.5q0 82 -34 147t-96.5 102.5
t-143.5 37.5t-143.5 -37.5t-96.5 -102.5t-34 -147t35.5 -147zM243 497h281v-51l-147 -359h-64l146 357h-216v53z" />
    <glyph glyph-name="uni2467" unicode="&#x2467;" horiz-adv-x="760" 
d="M206 0q-78 45 -121.5 124t-43.5 178t42.5 179t120 126.5t178.5 46.5t178 -46.5t119 -127t42 -178.5q0 -99 -43.5 -178t-120.5 -124t-175 -45t-176 45zM143.5 156q35.5 -65 98 -101.5t140.5 -36.5q77 0 139.5 36.5t98.5 101t36 147.5q0 82 -34 147t-96.5 102.5
t-143.5 37.5t-143.5 -37.5t-96.5 -102.5t-34 -147t35.5 -147zM262 275.5q16 26.5 44 43.5q-20 14 -31.5 35.5t-11.5 47.5q0 47 36 77.5t86 30.5t85.5 -30.5t35.5 -77.5q0 -54 -43 -84q28 -16 44 -42.5t16 -58.5q0 -54 -39.5 -88t-98.5 -34q-60 0 -99.5 33.5t-39.5 88.5
q0 32 16 58.5zM326.5 164.5q23.5 -20.5 58.5 -20.5q34 0 57 20.5t23 52.5q0 31 -24 52t-56 21q-33 0 -57.5 -21t-24.5 -52q0 -32 23.5 -52.5zM335 360.5q17 -16.5 42 -18.5h14q25 0 42 17.5t17 42.5q0 26 -19.5 42.5t-45.5 16.5q-27 0 -47 -16.5t-20 -42.5q0 -25 17 -41.5z
" />
    <glyph glyph-name="uni2468" unicode="&#x2468;" horiz-adv-x="760" 
d="M202 1q-77 46 -119.5 126.5t-42.5 178.5q0 99 43 178.5t120.5 124.5t175.5 45t176 -45t121.5 -124.5t43.5 -178.5t-42.5 -179t-120 -126t-178.5 -46q-100 0 -177 46zM139 158.5q34 -65.5 96.5 -102.5t143.5 -37t143 37t96.5 102.5t34.5 147.5t-35.5 147t-97.5 101.5
t-141 36.5q-78 0 -140.5 -36.5t-98 -101.5t-35.5 -147t34 -147.5zM266 444.5q18 31.5 48 49t66 17.5t66.5 -17.5t48.5 -49t18 -71.5l1 -150q0 -62 -36 -97t-97 -35q-54 0 -88.5 28.5t-41.5 81.5l55 6q4 -31 24 -47.5t52 -16.5q36 0 57 20.5t21 58.5v42q-33 -27 -80 -27
q-57 0 -94.5 38t-37.5 98q0 40 18 71.5zM324 312.5q23 -23.5 57 -23.5t57 23.5t23 60.5q0 36 -24 60t-56 24t-56 -24t-24 -60q0 -37 23 -60.5z" />
    <glyph glyph-name="zero.ss16" horiz-adv-x="875" 
d="M234 17.5q-91 51.5 -143 141t-52 198.5q0 112 52 202.5t143 142.5t202 52q113 0 204.5 -52t143.5 -142.5t52 -202.5q0 -110 -52 -199.5t-143.5 -140.5t-204.5 -51q-111 0 -202 51.5zM522 119q39 19 62 53.5t23 78.5v231q0 46 -23 83t-62 57.5t-85 20.5q-45 0 -84 -19.5
t-62.5 -54.5t-23.5 -79v-231q0 -46 23 -82.5t62 -56.5t85 -20t85 19zM355.5 562.5q33.5 27.5 81.5 27.5t82 -28t34 -75v-232q0 -48 -34 -76.5t-82 -28.5t-81.5 28.5t-33.5 76.5v232q0 48 33.5 75.5z" />
    <glyph glyph-name="one.ss16" horiz-adv-x="875" 
d="M234 17.5q-91 51.5 -143 141t-52 198.5q0 112 52 202.5t143 142.5t202 52q113 0 204.5 -52t143.5 -142.5t52 -202.5q0 -110 -52 -199.5t-143.5 -140.5t-204.5 -51q-111 0 -202 51.5zM489 108v526h-54v-10q0 -16 -11.5 -23.5t-26.5 -7.5h-46v-50h85v-435h53z" />
    <glyph glyph-name="two.ss16" horiz-adv-x="875" 
d="M234 17.5q-91 51.5 -143 141t-52 198.5q0 112 52 202.5t143 142.5t202 52q113 0 204.5 -52t143.5 -142.5t52 -202.5q0 -110 -52 -199.5t-143.5 -140.5t-204.5 -51q-111 0 -202 51.5zM614 104v53h-276q0 30 42.5 79.5t102.5 92.5q70 48 98.5 87.5t28.5 82.5
q0 64 -42.5 102t-121.5 38q-80 0 -128 -44t-48 -120h54q0 47 30 79.5t89 32.5q113 0 113 -88q0 -33 -28.5 -63.5t-88.5 -73.5q-87 -63 -129 -126t-42 -132h346z" />
    <glyph glyph-name="three.ss16" horiz-adv-x="875" 
d="M234 17.5q-91 51.5 -143 141t-52 198.5q0 112 52 202.5t143 142.5t202 52q113 0 204.5 -52t143.5 -142.5t52 -202.5q0 -110 -52 -199.5t-143.5 -140.5t-204.5 -51q-111 0 -202 51.5zM563.5 139q47.5 39 47.5 108q0 53 -30.5 91.5t-71.5 48.5q33 7 60 44t27 80
q0 64 -44 98t-112 34q-67 0 -112 -34t-45 -96h52q1 41 31.5 59.5t73.5 18.5q46 0 74 -21t28 -63q0 -40 -29.5 -69.5t-71.5 -29.5h-72v-49h71q49 0 82 -31t33 -80q0 -48 -33 -73.5t-81 -25.5q-51 0 -82 23.5t-32 67.5l-55 -3q1 -67 47.5 -102t121.5 -35t122.5 39z" />
    <glyph glyph-name="four.ss16" horiz-adv-x="875" 
d="M234 17.5q-91 51.5 -143 141t-52 198.5q0 112 52 202.5t143 142.5t202 52q113 0 204.5 -52t143.5 -142.5t52 -202.5q0 -110 -52 -199.5t-143.5 -140.5t-204.5 -51q-111 0 -202 51.5zM558 108v118h65v52h-65v356h-70l-236 -336v-72h251v-118h55zM503 566v-288h-202z" />
    <glyph glyph-name="five.ss16" horiz-adv-x="875" 
d="M234 17.5q-91 51.5 -143 141t-52 198.5q0 112 52 202.5t143 142.5t202 52q113 0 204.5 -52t143.5 -142.5t52 -202.5q0 -110 -52 -199.5t-143.5 -140.5t-204.5 -51q-111 0 -202 51.5zM547 128q40 24 61.5 65.5t21.5 91.5q0 79 -46.5 128t-126.5 49q-31 0 -61.5 -11.5
t-50.5 -31.5l10 167h242v52h-292l-16 -270l50 -21q13 25 45.5 44t68.5 19q62 0 92.5 -33t30.5 -93q0 -55 -34 -91.5t-90 -36.5q-49 0 -81.5 20.5t-48.5 65.5l-53 -13q20 -62 68.5 -93.5t115.5 -31.5q54 0 94 24z" />
    <glyph glyph-name="six.ss16" horiz-adv-x="875" 
d="M641 702.5q91 -51.5 143 -141t52 -198.5q0 -112 -52 -202.5t-143 -142.5t-202 -52q-113 0 -204.5 52t-143.5 142.5t-52 202.5q0 110 52 199.5t143.5 140.5t204.5 51q111 0 202 -51.5zM524 100.5q39 22.5 62 63t23 91.5q0 52 -22 92t-60.5 62.5t-87.5 22.5
q-37 0 -69.5 -13.5t-51.5 -46.5v74q0 123 118 123q54 0 84.5 -26.5t30.5 -67.5h51q0 69 -46.5 107.5t-118.5 38.5q-79 0 -125 -43t-46 -122v-201q0 -52 23.5 -92t63 -62.5t86.5 -22.5q46 0 85 22.5zM352.5 347q34.5 36 85.5 36t85.5 -36t34.5 -92q0 -36 -17 -65t-44.5 -45
t-58.5 -16t-58.5 16t-44.5 45t-17 65q0 56 34.5 92z" />
    <glyph glyph-name="seven.ss16" horiz-adv-x="875" 
d="M234 17.5q-91 51.5 -143 141t-52 198.5q0 112 52 202.5t143 142.5t202 52q113 0 204.5 -52t143.5 -142.5t52 -202.5q0 -110 -52 -199.5t-143.5 -140.5t-204.5 -51q-111 0 -202 51.5zM426 108l199 469v57h-353v-52h295l-200 -474h59z" />
    <glyph glyph-name="eight.ss16" horiz-adv-x="875" 
d="M234 17.5q-91 51.5 -143 141t-52 198.5q0 112 52 202.5t143 142.5t202 52q113 0 204.5 -52t143.5 -142.5t52 -202.5q0 -110 -52 -199.5t-143.5 -140.5t-204.5 -51q-111 0 -202 51.5zM564.5 142.5q50.5 42.5 50.5 112.5q0 86 -87 136q65 48 65 114q0 40 -21 71.5t-56.5 49
t-77.5 17.5t-77.5 -17.5t-56.5 -49t-21 -71.5q0 -67 65 -113q-88 -51 -88 -137q0 -47 24.5 -82.5t65 -54t87.5 -18.5q77 0 127.5 42.5zM352 335.5q37 30.5 85 30.5t85.5 -30.5t37.5 -79.5t-36 -79.5t-87 -30.5q-50 0 -86 30.5t-36 79.5t37 79.5zM367.5 570q30.5 26 70.5 26
q41 0 71 -26t30 -66q0 -39 -28.5 -64t-72.5 -25q-45 0 -73 24.5t-28 64.5t30.5 66z" />
    <glyph glyph-name="nine.ss16" horiz-adv-x="875" 
d="M234 17.5q-91 51.5 -143 141t-52 198.5q0 112 52 202.5t143 142.5t202 52q113 0 204.5 -52t143.5 -142.5t52 -202.5q0 -110 -52 -199.5t-143.5 -140.5t-204.5 -51q-111 0 -202 51.5zM351 619.5q-39 -22.5 -62 -63t-23 -91.5q0 -52 22 -92t60.5 -62.5t87.5 -22.5
q37 0 69.5 13.5t51.5 46.5v-74q0 -123 -118 -123q-54 0 -84.5 26.5t-30.5 67.5h-51q0 -69 46.5 -107.5t118.5 -38.5q79 0 125 43t46 122v201q0 52 -23.5 92t-63 62.5t-86.5 22.5q-46 0 -85 -22.5zM522.5 373q-34.5 -36 -85.5 -36t-85.5 36t-34.5 92q0 36 17 65t44.5 45
t58.5 16t58.5 -16t44.5 -45t17 -65q0 -56 -34.5 -92z" />
    <glyph glyph-name="zero.ss17" horiz-adv-x="792" 
d="M39 712h714v-714h-714v714zM487 119q39 19 62 53.5t23 78.5v231q0 46 -23 83t-62 57.5t-85 20.5q-45 0 -84 -19.5t-62.5 -54.5t-23.5 -79v-231q0 -46 22.5 -82.5t61.5 -56.5t86 -20q46 0 85 19zM320 562.5q33 27.5 82 27.5q48 0 82 -28t34 -75v-232q0 -48 -34 -76.5
t-82 -28.5q-49 0 -82 28.5t-33 76.5v232q0 48 33 75.5z" />
    <glyph glyph-name="one.ss17" horiz-adv-x="792" 
d="M39 717h714v-714h-714v714zM443 108v526h-55v-10q0 -16 -11.5 -23.5t-25.5 -7.5h-46v-50h85v-435h53z" />
    <glyph glyph-name="two.ss17" horiz-adv-x="792" 
d="M39 717h714v-714h-714v714zM562 108v53h-276q0 30 42.5 79.5t102.5 92.5q70 48 98.5 87.5t28.5 82.5q0 64 -42.5 102t-121.5 38q-80 0 -128 -44t-48 -120h54q0 47 30 79.5t89 32.5q113 0 113 -88q0 -33 -28.5 -63.5t-88.5 -73.5q-87 -63 -129 -126t-42 -132h346z" />
    <glyph glyph-name="three.ss17" horiz-adv-x="792" 
d="M39 717h714v-714h-714v714zM509.5 139q47.5 39 47.5 108q0 53 -30 92t-72 48q34 7 60.5 44t26.5 80q0 63 -43.5 97.5t-111.5 34.5q-67 0 -112.5 -34t-45.5 -96h53q0 41 30.5 59.5t74.5 18.5q45 0 73 -21t28 -63q0 -40 -29.5 -69.5t-71.5 -29.5h-72v-49h72q48 0 81 -31
t33 -80q0 -48 -33 -73.5t-81 -25.5q-50 0 -81.5 23.5t-32.5 67.5l-55 -3q2 -67 48.5 -102t120.5 -35q75 0 122.5 39z" />
    <glyph glyph-name="four.ss17" horiz-adv-x="792" 
d="M39 717h714v-714h-714v714zM509 108v118h65v52h-65v356h-69l-237 -336v-72h252v-118h54zM455 566v-288h-203z" />
    <glyph glyph-name="five.ss17" horiz-adv-x="792" 
d="M39 717h714v-714h-714v714zM488 124q40 24 61.5 65.5t21.5 91.5q0 79 -46.5 128t-125.5 49q-32 0 -62.5 -11.5t-50.5 -31.5l10 167h242v52h-291l-17 -270l50 -21q13 25 45.5 44t68.5 19q62 0 92.5 -33t30.5 -93q0 -55 -34 -91.5t-89 -36.5q-49 0 -82 20t-49 66l-53 -13
q20 -62 68.5 -93.5t115.5 -31.5q54 0 94 24z" />
    <glyph glyph-name="six.ss17" horiz-adv-x="792" 
d="M39 717h714v-714h-714v714zM488.5 122.5q39.5 22.5 62.5 63t23 91.5q0 52 -22 92t-61 62.5t-88 22.5q-36 0 -68.5 -13.5t-51.5 -46.5v74q0 123 117 123q54 0 84.5 -26.5t30.5 -67.5h52q0 69 -47 107.5t-118 38.5q-80 0 -126 -43t-46 -122v-201q0 -51 23.5 -91.5t63.5 -63
t86 -22.5t85.5 22.5zM317 369q34 36 85 36t86 -36t35 -92q0 -36 -17 -65t-44.5 -45t-59.5 -16q-31 0 -58.5 16t-44 45t-16.5 65q0 56 34 92z" />
    <glyph glyph-name="seven.ss17" horiz-adv-x="792" 
d="M39 717h714v-714h-714v714zM351 108l199 469v57h-354v-52h296l-201 -474h60z" />
    <glyph glyph-name="eight.ss17" horiz-adv-x="792" 
d="M39 717h714v-714h-714v714zM520.5 142.5q50.5 42.5 50.5 112.5q0 86 -87 136q65 48 65 114q0 40 -21.5 71.5t-57 49t-76.5 17.5q-42 0 -78 -17.5t-57 -49t-21 -71.5q0 -67 65 -113q-88 -52 -88 -137q0 -47 24.5 -82.5t65.5 -54t88 -18.5q77 0 127.5 42.5zM307.5 335.5
q37.5 30.5 85.5 30.5t85 -30.5t37 -79.5q0 -50 -35.5 -80t-86.5 -30t-87 30.5t-36 79.5t37.5 79.5zM323 570q30 26 71 26q40 0 70 -26t30 -66t-28 -64.5t-72 -24.5q-46 0 -73.5 24.5t-27.5 64.5t30 66z" />
    <glyph glyph-name="nine.ss17" horiz-adv-x="792" 
d="M39 717h714v-714h-714v714zM322 619.5q-39 -22.5 -62 -63t-23 -91.5q0 -52 22 -92t60.5 -62.5t87.5 -22.5q37 0 69.5 13.5t51.5 46.5v-74q0 -123 -118 -123q-54 0 -84.5 26.5t-30.5 67.5h-51q0 -69 46.5 -107.5t118.5 -38.5q79 0 125 43t46 122v201q0 52 -23.5 92
t-63 62.5t-86.5 22.5q-46 0 -85 -22.5zM493.5 373q-34.5 -36 -85.5 -36t-85.5 36t-34.5 92q0 36 17 65t44.5 45t58.5 16t58.5 -16t44.5 -45t17 -65q0 -56 -34.5 -92z" />
    <glyph glyph-name="zero.ss18" horiz-adv-x="798" 
d="M39 605v115h114v-41h-73v-74h-41zM644 679v41h115v-115h-42v74h-73zM39 0v115h41v-74h73v-41h-114zM644 0v41h73v74h42v-115h-115zM496 0v41h103v-41h-103zM199 0v41h103v-41h-103zM199 679v41h103v-41h-103zM759 160h-42v102h42v-102zM759 458h-42v101h42v-101zM347 0
v41h104v-41h-104zM80 160h-41v102h41v-102zM347 679v41h104v-41h-104zM496 679v41h103v-41h-103zM80 308h-41v104h41v-104zM80 458h-41v101h41v-101zM759 308h-42v104h42v-104zM325.5 154.5q-33.5 17.5 -53 48.5t-19.5 71v198q0 37 20 67t53 46.5t72 16.5q40 0 73.5 -17.5
t53 -49t19.5 -71.5v-198q0 -57 -42.5 -93t-103.5 -36q-39 0 -72.5 17.5zM328.5 204.5q28.5 -24.5 69.5 -24.5q42 0 71 24.5t29 65.5v199q0 40 -29 64t-71 24q-41 0 -69.5 -24t-28.5 -64v-199q0 -41 28.5 -65.5z" />
    <glyph glyph-name="one.ss18" horiz-adv-x="798" 
d="M398 516h-72v44h40q12 0 21.5 6t9.5 20v9h47v-451h-46v372zM39 605v115h114v-41h-73v-74h-41zM644 679v41h115v-115h-42v74h-73zM39 0v115h41v-74h73v-41h-114zM644 0v41h73v74h42v-115h-115zM496 0v41h103v-41h-103zM199 0v41h103v-41h-103zM199 679v41h103v-41h-103z
M759 160h-42v102h42v-102zM759 458h-42v101h42v-101zM347 0v41h104v-41h-104zM80 160h-41v102h41v-102zM347 679v41h104v-41h-104zM496 679v41h103v-41h-103zM80 308h-41v104h41v-104zM80 458h-41v101h41v-101zM759 308h-42v104h42v-104z" />
    <glyph glyph-name="two.ss18" horiz-adv-x="798" 
d="M287 253q36 54 111 108q51 37 75.5 63.5t24.5 54.5q0 75 -97 75q-50 0 -76 -28t-26 -68h-47q0 65 41.5 102.5t109.5 37.5t104.5 -32.5t36.5 -86.5q0 -37 -24.5 -70.5t-84.5 -75.5q-51 -35 -87 -78t-36 -69h235v-46h-296q0 59 36 113zM39 605v115h114v-41h-73v-74h-41z
M644 679v41h115v-115h-42v74h-73zM39 0v115h41v-74h73v-41h-114zM644 0v41h73v74h42v-115h-115zM496 0v41h103v-41h-103zM199 0v41h103v-41h-103zM199 679v41h103v-41h-103zM759 160h-42v102h42v-102zM759 458h-42v101h42v-101zM347 0v41h104v-41h-104zM80 160h-41v102h41
v-102zM347 679v41h104v-41h-104zM496 679v41h103v-41h-103zM80 308h-41v104h41v-104zM80 458h-41v101h41v-101zM759 308h-42v104h42v-104z" />
    <glyph glyph-name="three.ss18" horiz-adv-x="798" 
d="M295 167q-40 30 -41 88l47 2q1 -37 27.5 -57.5t70.5 -20.5q40 0 69 22.5t29 63.5t-28.5 67.5t-69.5 26.5h-62v42h62q36 0 61 25t25 60q0 36 -24.5 54t-62.5 18q-37 0 -63 -16t-27 -51h-45q0 53 38.5 82t96.5 29q59 0 96.5 -29t37.5 -84q0 -37 -23.5 -69t-51.5 -37
q36 -8 62 -41t26 -79q0 -59 -41 -92.5t-105 -33.5t-104 30zM39 605v115h114v-41h-73v-74h-41zM644 679v41h115v-115h-42v74h-73zM39 0v115h41v-74h73v-41h-114zM644 0v41h73v74h42v-115h-115zM496 0v41h103v-41h-103zM199 0v41h103v-41h-103zM199 679v41h103v-41h-103z
M759 160h-42v102h42v-102zM759 458h-42v101h42v-101zM347 0v41h104v-41h-104zM80 160h-41v102h41v-102zM347 679v41h104v-41h-104zM496 679v41h103v-41h-103zM80 308h-41v104h41v-104zM80 458h-41v101h41v-101zM759 308h-42v104h42v-104z" />
    <glyph glyph-name="four.ss18" horiz-adv-x="798" 
d="M456 246h-216v61l203 288h59v-305h56v-44h-56v-102h-46v102zM456 290v246l-174 -246h174zM39 605v115h114v-41h-73v-74h-41zM644 679v41h115v-115h-42v74h-73zM39 0v115h41v-74h73v-41h-114zM644 0v41h73v74h42v-115h-115zM496 0v41h103v-41h-103zM199 0v41h103v-41h-103
zM199 679v41h103v-41h-103zM759 160h-42v102h42v-102zM759 458h-42v101h42v-101zM347 0v41h104v-41h-104zM80 160h-41v102h41v-102zM347 679v41h104v-41h-104zM496 679v41h103v-41h-103zM80 308h-41v104h41v-104zM80 458h-41v101h41v-101zM759 308h-42v104h42v-104z" />
    <glyph glyph-name="five.ss18" horiz-adv-x="798" 
d="M303 168q-41 27 -58 80l45 12q14 -39 42 -56.5t70 -17.5q48 0 77 31.5t29 78.5q0 51 -26.5 79t-79.5 28q-31 0 -59 -16t-39 -38l-42 19l14 231h249v-45h-207l-9 -144q17 18 43.5 28t53.5 10q68 0 108 -42t40 -110q0 -42 -18.5 -77.5t-53 -56.5t-80.5 -21q-58 0 -99 27z
M39 605v115h114v-41h-73v-74h-41zM644 679v41h115v-115h-42v74h-73zM39 0v115h41v-74h73v-41h-114zM644 0v41h73v74h42v-115h-115zM496 0v41h103v-41h-103zM199 0v41h103v-41h-103zM199 679v41h103v-41h-103zM759 160h-42v102h42v-102zM759 458h-42v101h42v-101zM347 0v41
h104v-41h-104zM80 160h-41v102h41v-102zM347 679v41h104v-41h-104zM496 679v41h103v-41h-103zM80 308h-41v104h41v-104zM80 458h-41v101h41v-101zM759 308h-42v104h42v-104z" />
    <glyph glyph-name="six.ss18" horiz-adv-x="798" 
d="M326 156q-34 19 -54 54t-20 79v171q0 69 39 105.5t108 36.5q62 0 101.5 -32.5t39.5 -91.5h-44q0 35 -26 57.5t-72 22.5q-101 0 -101 -105v-65q16 29 44 41t59 12q64 0 105.5 -42.5t41.5 -109.5q0 -44 -20 -78.5t-53.5 -54t-73.5 -19.5t-74 19zM327 212q31 -31 72 -31
q42 0 73 30.5t31 77.5q0 48 -30 78.5t-74 30.5t-73.5 -30.5t-29.5 -78.5q0 -46 31 -77zM39 605v115h114v-41h-73v-74h-41zM644 679v41h115v-115h-42v74h-73zM39 0v115h41v-74h73v-41h-114zM644 0v41h73v74h42v-115h-115zM496 0v41h103v-41h-103zM199 0v41h103v-41h-103z
M199 679v41h103v-41h-103zM759 160h-42v102h42v-102zM759 458h-42v101h42v-101zM347 0v41h104v-41h-104zM80 160h-41v102h41v-102zM347 679v41h104v-41h-104zM496 679v41h103v-41h-103zM80 308h-41v104h41v-104zM80 458h-41v101h41v-101zM759 308h-42v104h42v-104z" />
    <glyph glyph-name="seven.ss18" horiz-adv-x="798" 
d="M501 550h-253v45h303v-49l-171 -402h-51zM39 605v115h114v-41h-73v-74h-41zM644 679v41h115v-115h-42v74h-73zM39 0v115h41v-74h73v-41h-114zM644 0v41h73v74h42v-115h-115zM496 0v41h103v-41h-103zM199 0v41h103v-41h-103zM199 679v41h103v-41h-103zM759 160h-42v102h42
v-102zM759 458h-42v101h42v-101zM347 0v41h104v-41h-104zM80 160h-41v102h41v-102zM347 679v41h104v-41h-104zM496 679v41h103v-41h-103zM80 308h-41v104h41v-104zM80 458h-41v101h41v-101zM759 308h-42v104h42v-104z" />
    <glyph glyph-name="eight.ss18" horiz-adv-x="798" 
d="M291.5 173q-44.5 36 -44.5 97q0 74 75 118q-55 39 -55 96q0 52 39 85t94 33q54 0 93.5 -33t39.5 -85q0 -56 -56 -97q75 -45 75 -117q0 -60 -44 -96.5t-109 -36.5q-63 0 -107.5 36zM325 202.5q31 -25.5 74 -25.5q44 0 74.5 25.5t30.5 67.5q0 43 -31.5 69t-73.5 26
t-73.5 -26t-31.5 -69q0 -42 31 -67.5zM337 428q24 -21 63 -21q38 0 62 21.5t24 55.5t-25.5 56t-60.5 22t-61 -22t-26 -56q0 -35 24 -56zM39 605v115h114v-41h-73v-74h-41zM644 679v41h115v-115h-42v74h-73zM39 0v115h41v-74h73v-41h-114zM644 0v41h73v74h42v-115h-115z
M496 0v41h103v-41h-103zM199 0v41h103v-41h-103zM199 679v41h103v-41h-103zM759 160h-42v102h42v-102zM759 458h-42v101h42v-101zM347 0v41h104v-41h-104zM80 160h-41v102h41v-102zM347 679v41h104v-41h-104zM496 679v41h103v-41h-103zM80 308h-41v104h41v-104zM80 458h-41
v101h41v-101zM759 308h-42v104h42v-104z" />
    <glyph glyph-name="nine.ss18" horiz-adv-x="798" 
d="M472 564q34 -19 54 -54t20 -79v-171q0 -69 -39 -105.5t-108 -36.5q-62 0 -101.5 32.5t-39.5 91.5h44q0 -35 26 -57.5t72 -22.5q101 0 101 105v65q-16 -29 -44 -41t-59 -12q-64 0 -105.5 42.5t-41.5 109.5q0 44 20 78.5t53.5 54t73.5 19.5t74 -19zM471 508q-31 31 -72 31
q-42 0 -73 -30.5t-31 -77.5q0 -48 30 -78.5t74 -30.5t73.5 30.5t29.5 78.5q0 46 -31 77zM759 115v-115h-114v41h73v74h41zM154 41v-41h-115v115h42v-74h73zM759 720v-115h-41v74h-73v41h114zM154 720v-41h-73v-74h-42v115h115zM302 720v-41h-103v41h103zM599 720v-41h-103
v41h103zM599 41v-41h-103v41h103zM39 560h42v-102h-42v102zM39 262h42v-101h-42v101zM451 720v-41h-104v41h104zM718 560h41v-102h-41v102zM451 41v-41h-104v41h104zM302 41v-41h-103v41h103zM718 412h41v-104h-41v104zM718 262h41v-101h-41v101zM39 412h42v-104h-42v104z
" />
    <glyph glyph-name="zero.dnom" horiz-adv-x="357" 
d="M81 23.5q-40 36.5 -40 93.5v188q0 35 19 63.5t51 44.5t68 16q57 0 97.5 -37t40.5 -94v-188q0 -54 -40.5 -88.5t-97.5 -34.5q-58 0 -98 36.5zM112.5 51q27.5 -23 66.5 -23t66.5 23t27.5 62v189q0 39 -27.5 61.5t-66.5 22.5t-66.5 -22.5t-27.5 -61.5v-189q0 -39 27.5 -62z
" />
    <glyph glyph-name="one.dnom" horiz-adv-x="176" 
d="M83 349h-68v40h37q11 0 20.5 6.5t9.5 18.5v9h44v-423h-43v349z" />
    <glyph glyph-name="two.dnom" horiz-adv-x="332" 
d="M60.5 106.5q33.5 50.5 103.5 101.5q47 33 70.5 58.5t23.5 51.5q0 70 -91 70q-47 0 -71 -26t-24 -64h-44q0 61 38.5 96.5t102.5 35.5t98 -30.5t34 -81.5q0 -35 -23 -66.5t-79 -70.5q-49 -34 -82.5 -74t-33.5 -64h221v-43h-277q0 56 33.5 106.5z" />
    <glyph glyph-name="three.dnom" horiz-adv-x="339" 
d="M68 16q-38 29 -39 84l45 2q1 -36 26 -55t67 -19q39 0 66 20.5t27 59.5q0 40 -26.5 65t-66.5 25h-59v41h59q34 0 58 24t24 57q0 34 -22.5 51t-59.5 17q-36 0 -61 -15t-25 -49h-43q0 51 36.5 78.5t92.5 27.5q55 0 90.5 -27.5t35.5 -79.5q0 -36 -21.5 -66t-48.5 -36
q33 -7 58 -38.5t25 -74.5q0 -56 -39 -88.5t-100 -32.5t-99 29z" />
    <glyph glyph-name="four.dnom" horiz-adv-x="338" 
d="M220 95h-202v58l190 270h55v-286h53v-42h-53v-95h-43v95zM220 137v231l-163 -231h163z" />
    <glyph glyph-name="five.dnom" horiz-adv-x="342" 
d="M76.5 13q-39.5 26 -55.5 77l43 11q25 -71 107 -71q45 0 73 30t28 75q0 49 -24.5 76t-75.5 27q-30 0 -57 -15.5t-37 -35.5l-41 17l14 222h238v-43h-198l-8 -138q16 17 41.5 26.5t50.5 9.5q65 0 103 -40t38 -105q0 -63 -39.5 -106t-104.5 -43q-56 0 -95.5 26z" />
    <glyph glyph-name="six.dnom" horiz-adv-x="348" 
d="M109 11q-32 18 -51 51t-19 74v160q0 64 37 98.5t101 34.5q57 0 94.5 -31t37.5 -86h-41q0 33 -24 54t-68 21q-95 0 -95 -98v-60q16 27 42 38t55 11q59 0 98 -40t39 -102q0 -41 -18.5 -74t-50 -51t-68.5 -18t-69 18zM109.5 63.5q28.5 -28.5 67.5 -28.5t68 28.5t29 72.5
t-28 73t-69 29t-68.5 -28.5t-27.5 -73.5q0 -44 28.5 -72.5z" />
    <glyph glyph-name="seven.dnom" horiz-adv-x="309" 
d="M247 381h-238v42h284v-46l-159 -377h-48z" />
    <glyph glyph-name="eight.dnom" horiz-adv-x="351" 
d="M71 22q-43 35 -43 93q0 71 72 112q-53 40 -53 93q0 50 37 81.5t90 31.5q52 0 90 -32t38 -81q0 -55 -53 -93q71 -41 71 -112q0 -57 -41.5 -92.5t-104.5 -35.5q-60 0 -103 35zM102.5 50.5q29.5 -24.5 71.5 -24.5t71 24t29 65t-30 65.5t-70 24.5t-70.5 -24.5t-30.5 -65.5
q0 -40 29.5 -64.5zM114.5 266q22.5 -20 59.5 -20q36 0 59.5 20.5t23.5 52.5q0 33 -25 54t-58 21q-34 0 -58 -21t-24 -54t22.5 -53z" />
    <glyph glyph-name="nine.dnom" horiz-adv-x="357" 
d="M239 415.5q32 -18.5 51.5 -51t19.5 -74.5v-163q0 -64 -37.5 -99t-102.5 -35q-58 0 -96 31.5t-38 86.5h42q0 -33 24.5 -54.5t68.5 -21.5q96 0 96 100v60q-16 -27 -42.5 -38t-55.5 -11q-60 0 -99 40.5t-39 103.5q0 42 18.5 75t50.5 51t69 18q38 0 70 -18.5zM238 363
q-29 29 -68 29q-40 0 -69 -29t-29 -73q0 -46 28 -75t70 -29q41 0 69 29t28 75q0 44 -29 73z" />
    <glyph glyph-name="zero.numr" horiz-adv-x="357" 
d="M81 323.5q-40 36.5 -40 93.5v188q0 35 19 63.5t51 44.5t68 16q57 0 97.5 -37t40.5 -94v-188q0 -54 -40.5 -88.5t-97.5 -34.5q-58 0 -98 36.5zM112.5 351q27.5 -23 66.5 -23t66.5 23t27.5 62v189q0 39 -27.5 61.5t-66.5 22.5t-66.5 -22.5t-27.5 -61.5v-189q0 -39 27.5 -62
z" />
    <glyph glyph-name="one.numr" horiz-adv-x="176" 
d="M83 649h-68v40h37q11 0 20.5 6.5t9.5 18.5v9h44v-423h-43v349z" />
    <glyph glyph-name="two.numr" horiz-adv-x="332" 
d="M60.5 406.5q33.5 50.5 103.5 101.5q47 33 70.5 58.5t23.5 51.5q0 70 -91 70q-47 0 -71 -26t-24 -64h-44q0 61 38.5 96.5t102.5 35.5t98 -30.5t34 -81.5q0 -35 -23 -66.5t-79 -70.5q-49 -34 -82.5 -74t-33.5 -64h221v-43h-277q0 56 33.5 106.5z" />
    <glyph glyph-name="three.numr" horiz-adv-x="339" 
d="M68 316q-38 29 -39 84l45 2q1 -36 26 -55t67 -19q39 0 66 20.5t27 59.5q0 40 -26.5 65t-66.5 25h-59v41h59q34 0 58 24t24 57q0 34 -22.5 51t-59.5 17q-36 0 -61 -15t-25 -49h-43q0 51 36.5 78.5t92.5 27.5q55 0 90.5 -27.5t35.5 -79.5q0 -36 -21.5 -66t-48.5 -36
q33 -7 58 -38.5t25 -74.5q0 -56 -39 -88.5t-100 -32.5t-99 29z" />
    <glyph glyph-name="four.numr" horiz-adv-x="338" 
d="M220 395h-202v58l190 270h55v-286h53v-42h-53v-95h-43v95zM220 437v231l-163 -231h163z" />
    <glyph glyph-name="five.numr" horiz-adv-x="342" 
d="M76.5 313q-39.5 26 -55.5 77l43 11q25 -71 107 -71q45 0 73 30t28 75q0 49 -24.5 76t-75.5 27q-30 0 -57 -15.5t-37 -35.5l-41 17l14 222h238v-43h-198l-8 -138q16 17 41.5 26.5t50.5 9.5q65 0 103 -40t38 -105q0 -63 -39.5 -106t-104.5 -43q-56 0 -95.5 26z" />
    <glyph glyph-name="six.numr" horiz-adv-x="348" 
d="M109 311q-32 18 -51 51t-19 74v160q0 64 37 98.5t101 34.5q57 0 94.5 -31t37.5 -86h-41q0 33 -24 54t-68 21q-95 0 -95 -98v-60q16 27 42 38t55 11q59 0 98 -40t39 -102q0 -41 -18.5 -74t-50 -51t-68.5 -18t-69 18zM109.5 363.5q28.5 -28.5 67.5 -28.5t68 28.5t29 72.5
t-28 73t-69 29t-68.5 -28.5t-27.5 -73.5q0 -44 28.5 -72.5z" />
    <glyph glyph-name="seven.numr" horiz-adv-x="309" 
d="M247 681h-238v42h284v-46l-159 -377h-48z" />
    <glyph glyph-name="eight.numr" horiz-adv-x="351" 
d="M71 326.5q-43 34.5 -43 92.5q0 70 72 113q-53 40 -53 93q0 49 37.5 81t89.5 32t90 -32t38 -81q0 -55 -53 -93q71 -43 71 -113q0 -57 -41.5 -92t-104.5 -35q-60 0 -103 34.5zM102.5 354.5q29.5 -24.5 71.5 -24.5t71 24.5t29 65.5q0 40 -30 65t-70 25t-70.5 -25t-30.5 -65
q0 -41 29.5 -65.5zM114.5 570.5q22.5 -20.5 59.5 -20.5q36 0 59.5 20.5t23.5 53.5t-25 54t-58 21t-57.5 -21t-24.5 -54t22.5 -53.5z" />
    <glyph glyph-name="nine.numr" horiz-adv-x="357" 
d="M239 715.5q32 -18.5 51.5 -51t19.5 -74.5v-163q0 -64 -37.5 -99t-102.5 -35q-58 0 -96 31.5t-38 86.5h42q0 -33 24.5 -54.5t68.5 -21.5q96 0 96 100v60q-16 -27 -42.5 -38t-55.5 -11q-60 0 -99 40.5t-39 103.5q0 42 18.5 75t50.5 51t69 18q38 0 70 -18.5zM238 663
q-29 29 -68 29q-40 0 -69 -29t-29 -73q0 -46 28 -75t70 -29q41 0 69 29t28 75q0 44 -29 73z" />
    <glyph glyph-name="fraction" unicode="&#x2044;" horiz-adv-x="205" 
d="M261 755h50l-364 -755h-50z" />
    <glyph glyph-name="onehalf" unicode="&#xbd;" horiz-adv-x="678" 
d="M83 649h-68v40h37q11 0 20.5 6.5t9.5 18.5v9h44v-423h-43v349zM429 755h50l-364 -755h-50zM406.5 106.5q33.5 50.5 103.5 101.5q47 33 70.5 58.5t23.5 51.5q0 70 -91 70q-47 0 -71 -26t-24 -64h-44q0 61 38.5 96.5t102.5 35.5t98 -30.5t34 -81.5q0 -35 -23 -66.5
t-79 -70.5q-49 -34 -82.5 -74t-33.5 -64h221v-43h-277q0 56 33.5 106.5z" />
    <glyph glyph-name="uni2154" unicode="&#x2154;" horiz-adv-x="850" 
d="M60.5 406.5q33.5 50.5 103.5 101.5q47 33 70.5 58.5t23.5 51.5q0 70 -91 70q-47 0 -71 -26t-24 -64h-44q0 61 38.5 96.5t102.5 35.5t98 -30.5t34 -81.5q0 -35 -23 -66.5t-79 -70.5q-49 -34 -82.5 -74t-33.5 -64h221v-43h-277q0 56 33.5 106.5zM593 755h50l-364 -755h-50z
M579 16q-38 29 -39 84l45 2q1 -36 26 -55t67 -19q39 0 66 20.5t27 59.5q0 40 -26.5 65t-66.5 25h-59v41h59q34 0 58 24t24 57q0 34 -22.5 51t-59.5 17q-36 0 -61 -15t-25 -49h-43q0 51 36.5 78.5t92.5 27.5q55 0 90.5 -27.5t35.5 -79.5q0 -36 -21.5 -66t-48.5 -36
q33 -7 58 -38.5t25 -74.5q0 -56 -39 -88.5t-100 -32.5t-99 29z" />
    <glyph glyph-name="onequarter" unicode="&#xbc;" horiz-adv-x="655" 
d="M83 649h-68v40h37q11 0 20.5 6.5t9.5 18.5v9h44v-423h-43v349zM429 755h50l-364 -755h-50zM537 95h-202v58l190 270h55v-286h53v-42h-53v-95h-43v95zM537 137v231l-163 -231h163z" />
    <glyph glyph-name="threequarters" unicode="&#xbe;" horiz-adv-x="813" 
d="M68 316q-38 29 -39 84l45 2q1 -36 26 -55t67 -19q39 0 66 20.5t27 59.5q0 40 -26.5 65t-66.5 25h-59v41h59q34 0 58 24t24 57q0 34 -22.5 51t-59.5 17q-36 0 -61 -15t-25 -49h-43q0 51 36.5 78.5t92.5 27.5q55 0 90.5 -27.5t35.5 -79.5q0 -36 -21.5 -66t-48.5 -36
q33 -7 58 -38.5t25 -74.5q0 -56 -39 -88.5t-100 -32.5t-99 29zM587 755h50l-364 -755h-50zM695 95h-202v58l190 270h55v-286h53v-42h-53v-95h-43v95zM695 137v231l-163 -231h163z" />
    <glyph glyph-name="oneeighth" unicode="&#x215b;" horiz-adv-x="694" 
d="M83 649h-68v40h37q11 0 20.5 6.5t9.5 18.5v9h44v-423h-43v349zM429 755h50l-364 -755h-50zM414 22q-43 35 -43 93q0 71 72 112q-53 40 -53 93q0 50 37 81.5t90 31.5q52 0 90 -32t38 -81q0 -55 -53 -93q71 -41 71 -112q0 -57 -41.5 -92.5t-104.5 -35.5q-60 0 -103 35z
M445.5 50.5q29.5 -24.5 71.5 -24.5t71 24t29 65t-30 65.5t-70 24.5t-70.5 -24.5t-30.5 -65.5q0 -40 29.5 -64.5zM457.5 266q22.5 -20 59.5 -20q36 0 59.5 20.5t23.5 52.5q0 33 -25 54t-58 21q-34 0 -58 -21t-24 -54t22.5 -53z" />
    <glyph glyph-name="threeeighths" unicode="&#x215c;" horiz-adv-x="852" 
d="M68 316q-38 29 -39 84l45 2q1 -36 26 -55t67 -19q39 0 66 20.5t27 59.5q0 40 -26.5 65t-66.5 25h-59v41h59q34 0 58 24t24 57q0 34 -22.5 51t-59.5 17q-36 0 -61 -15t-25 -49h-43q0 51 36.5 78.5t92.5 27.5q55 0 90.5 -27.5t35.5 -79.5q0 -36 -21.5 -66t-48.5 -36
q33 -7 58 -38.5t25 -74.5q0 -56 -39 -88.5t-100 -32.5t-99 29zM587 755h50l-364 -755h-50zM572 22q-43 35 -43 93q0 71 72 112q-53 40 -53 93q0 50 37 81.5t90 31.5q52 0 90 -32t38 -81q0 -55 -53 -93q71 -41 71 -112q0 -57 -41.5 -92.5t-104.5 -35.5q-60 0 -103 35z
M603.5 50.5q29.5 -24.5 71.5 -24.5t71 24t29 65t-30 65.5t-70 24.5t-70.5 -24.5t-30.5 -65.5q0 -40 29.5 -64.5zM615.5 266q22.5 -20 59.5 -20q36 0 59.5 20.5t23.5 52.5q0 33 -25 54t-58 21q-34 0 -58 -21t-24 -54t22.5 -53z" />
    <glyph glyph-name="fiveeighths" unicode="&#x215d;" horiz-adv-x="856" 
d="M76.5 313q-39.5 26 -55.5 77l43 11q25 -71 107 -71q45 0 73 30t28 75q0 49 -24.5 76t-75.5 27q-30 0 -57 -15.5t-37 -35.5l-41 17l14 222h238v-43h-198l-8 -138q16 17 41.5 26.5t50.5 9.5q65 0 103 -40t38 -105q0 -63 -39.5 -106t-104.5 -43q-56 0 -95.5 26zM591 755h50
l-364 -755h-50zM576 22q-43 35 -43 93q0 71 72 112q-53 40 -53 93q0 50 37 81.5t90 31.5q52 0 90 -32t38 -81q0 -55 -53 -93q71 -41 71 -112q0 -57 -41.5 -92.5t-104.5 -35.5q-60 0 -103 35zM607.5 50.5q29.5 -24.5 71.5 -24.5t71 24t29 65t-30 65.5t-70 24.5t-70.5 -24.5
t-30.5 -65.5q0 -40 29.5 -64.5zM619.5 266q22.5 -20 59.5 -20q36 0 59.5 20.5t23.5 52.5q0 33 -25 54t-58 21q-34 0 -58 -21t-24 -54t22.5 -53z" />
    <glyph glyph-name="seveneighths" unicode="&#x215e;" horiz-adv-x="790" 
d="M247 681h-238v42h284v-46l-159 -377h-48zM525 755h50l-364 -755h-50zM510 22q-43 35 -43 93q0 71 72 112q-53 40 -53 93q0 50 37 81.5t90 31.5q52 0 90 -32t38 -81q0 -55 -53 -93q71 -41 71 -112q0 -57 -41.5 -92.5t-104.5 -35.5q-60 0 -103 35zM541.5 50.5
q29.5 -24.5 71.5 -24.5t71 24t29 65t-30 65.5t-70 24.5t-70.5 -24.5t-30.5 -65.5q0 -40 29.5 -64.5zM553.5 266q22.5 -20 59.5 -20q36 0 59.5 20.5t23.5 52.5q0 33 -25 54t-58 21q-34 0 -58 -21t-24 -54t22.5 -53z" />
    <glyph glyph-name="uni00B9" unicode="&#xb9;" horiz-adv-x="899" 
d="M255.5 49q-89.5 53 -142.5 142.5t-53 195.5q0 105 53 195t142.5 142.5t195.5 52.5t195.5 -52.5t142.5 -142.5t53 -195q0 -106 -53 -195.5t-142.5 -142.5t-195.5 -53t-195.5 53zM482 177v417h-44v-3q0 -13 -8.5 -18.5t-21.5 -5.5h-37v-41h68v-349h43z" />
    <glyph glyph-name="uni00B2" unicode="&#xb2;" horiz-adv-x="906" 
d="M255.5 31.5q-90.5 53.5 -144 144t-53.5 197.5q0 106 53.5 196.5t144 144t197.5 53.5t197.5 -53.5t144 -144t53.5 -196.5q0 -107 -53.5 -197.5t-144 -144t-197.5 -53.5t-197.5 53.5zM593 170v43h-223q6 29 36 64.5t78 63.5q59 36 83 66t24 70q0 51 -35 84t-97 33
q-64 0 -102.5 -35.5t-38.5 -96.5h42q0 38 24.5 64t71.5 26q43 0 67 -19.5t24 -55.5q0 -31 -24 -54.5t-74 -54.5q-72 -44 -102.5 -92t-30.5 -106h277z" />
    <glyph glyph-name="uni00B3" unicode="&#xb3;" horiz-adv-x="905" 
d="M254.5 34.5q-90.5 53.5 -144 144t-53.5 197.5q0 106 53.5 196.5t144 144t197.5 53.5t197.5 -53.5t144 -144t53.5 -196.5q0 -107 -53.5 -197.5t-144 -144t-197.5 -53.5t-197.5 53.5zM553 190q39 32 39 89q0 43 -24.5 72t-58.5 35q27 6 48.5 35t21.5 64q0 52 -36 79.5
t-92 27.5q-50 0 -88.5 -28t-38.5 -79h45q0 29 25 47t59 18q35 0 59 -17.5t24 -51.5q0 -32 -23.5 -54t-57.5 -22h-60v-41h58q40 0 66.5 -22.5t26.5 -61.5t-27.5 -60t-67.5 -21q-39 0 -63 19t-25 54h-46q0 -52 38.5 -83t95.5 -31q63 0 102 32z" />
    <glyph glyph-name="uni00A0" unicode="&#xa0;" horiz-adv-x="249" 
 />
    <glyph glyph-name="period" unicode="." horiz-adv-x="259" 
d="M187 115v-115h-115v115h115z" />
    <glyph glyph-name="comma" unicode="," horiz-adv-x="249" 
d="M123 -34.5q15 8.5 15 33.5h-70l1 115h115v-109q0 -38 -24.5 -62.5t-77.5 -22.5v37q26 0 41 8.5z" />
    <glyph glyph-name="colon" unicode=":" horiz-adv-x="258" 
d="M187 115v-115h-116v115h116zM71 540h116v-115h-116v115z" />
    <glyph glyph-name="semicolon" unicode=";" horiz-adv-x="251" 
d="M118 -34.5q15 8.5 15 33.5h-70l1 115h115v-109q0 -38 -24.5 -62.5t-77.5 -22.5v37q26 0 41 8.5zM63 539h117v-116h-117v116z" />
    <glyph glyph-name="ellipsis" unicode="&#x2026;" horiz-adv-x="732" 
d="M207 115v-115h-115v115h115zM424 115v-115h-115v115h115zM640 115v-115h-115v115h115z" />
    <glyph glyph-name="exclam" unicode="!" horiz-adv-x="292" 
d="M107 761h76v-537h-76v537zM87 115h115v-115h-115v115z" />
    <glyph glyph-name="exclamdown" unicode="&#xa1;" horiz-adv-x="292" 
d="M185 -221h-76v537h76v-537zM205 425h-115v115h115v-115z" />
    <glyph glyph-name="question" unicode="?" horiz-adv-x="528" 
d="M228.5 334q10.5 35 34.5 63.5t68 61.5q33 25 49.5 53t16.5 70q0 54 -37.5 88t-93.5 34q-65 0 -104 -40.5t-39 -101.5h-83q0 58 27.5 106t79 76.5t119.5 28.5q57 0 106 -22.5t78 -65.5t29 -102q0 -56 -26.5 -99.5t-84.5 -86.5q-33 -24 -49.5 -46.5t-21.5 -46.5t-5 -61v-20
h-74v23q0 53 10.5 88zM202 115h116v-115h-116v115z" />
    <glyph glyph-name="questiondown" unicode="&#xbf;" horiz-adv-x="528" 
d="M299.5 206q-10.5 -35 -34.5 -63.5t-68 -61.5q-33 -25 -49.5 -53t-16.5 -70q0 -54 37.5 -88t93.5 -34q65 0 104 40.5t39 101.5h83q0 -58 -27.5 -106t-79 -76.5t-119.5 -28.5q-57 0 -106 22.5t-78 65.5t-29 102q0 56 26.5 99.5t84.5 86.5q33 24 49.5 46.5t21.5 46.5t5 61
v20h74v-23q0 -53 -10.5 -88zM326 425h-116v115h116v-115z" />
    <glyph glyph-name="periodcentered" unicode="&#xb7;" horiz-adv-x="262" 
d="M88 276q-18 18 -18 44t18 44t43 18t43 -18t18 -44t-18 -44t-43 -18t-43 18z" />
    <glyph glyph-name="bullet" unicode="&#x2022;" horiz-adv-x="327" 
d="M256 392v-174h-175v174h175z" />
    <glyph glyph-name="asterisk" unicode="*" horiz-adv-x="516" 
d="M221 444l-114 -114l-41 41l117 117l-166 -1l1 59h161l-115 116l41 40l116 -116l1 166l58 -1v-162l114 115l41 -41l-116 -116l165 -2l1 -58h-162l114 -114l-41 -41l-116 116v-164l-59 -1v161z" />
    <glyph glyph-name="numbersign" unicode="#" horiz-adv-x="647" 
d="M153 224h-107v65h120l31 166h-126v63h140l47 234h70l-47 -234h151l46 234h69l-46 -234h101v-63h-114l-33 -166h122v-65h-134l-44 -224h-69l43 224h-151l-43 -224h-70zM385 289l34 166h-151l-32 -166h149z" />
    <glyph glyph-name="slash" unicode="/" horiz-adv-x="363" 
d="M265 752h79l-246 -752h-77z" />
    <glyph glyph-name="backslash" unicode="\" horiz-adv-x="363" 
d="M266 0l-246 752h79l244 -752h-77z" />
    <glyph glyph-name="asterisk.001" horiz-adv-x="516" 
d="M221 444l-114 -114l-41 41l117 117l-166 -1l1 59h161l-115 116l41 40l116 -116l1 166l58 -1v-162l114 115l41 -41l-116 -116l165 -2l1 -58h-162l114 -114l-41 -41l-116 116v-164l-59 -1v161z" />
    <glyph glyph-name="exclamdown.case" horiz-adv-x="292" 
d="M185 -9h-76v537h76v-537zM205 637h-115v115h115v-115z" />
    <glyph glyph-name="questiondown.case" horiz-adv-x="528" 
d="M299.5 418q-10.5 -35 -34.5 -63.5t-68 -61.5q-33 -25 -49.5 -53t-16.5 -70q0 -54 37.5 -88t93.5 -34q65 0 104 40.5t39 101.5h83q0 -58 -27.5 -106t-79 -76.5t-119.5 -28.5q-57 0 -106 22.5t-78 65.5t-29 102q0 56 26.5 99.5t84.5 86.5q33 24 49.5 46.5t21.5 46.5t5 61
v20h74v-23q0 -53 -10.5 -88zM326 637h-116v115h116v-115z" />
    <glyph glyph-name="periodcentered.loclCAT" horiz-adv-x="145" 
d="M130 415v-115h-115v115h115z" />
    <glyph glyph-name="period.ss06" horiz-adv-x="232" 
d="M78 16q-16 16 -16 38q0 23 16 39t39 16q22 0 37.5 -16t15.5 -39q0 -22 -15.5 -38t-37.5 -16q-23 0 -39 16z" />
    <glyph glyph-name="comma.ss06" horiz-adv-x="201" 
d="M13 -88l86 145l60 -35l-85 -147z" />
    <glyph glyph-name="colon.ss06" horiz-adv-x="254" 
d="M88.5 16.5q-16.5 16.5 -16.5 38.5t16 38t39 16t38.5 -15.5t15.5 -38.5t-16 -39t-38 -16t-38.5 16.5zM88 440q16 16 39 16t38.5 -16t15.5 -39q0 -22 -16 -38t-38 -16t-38.5 16t-16.5 38q0 23 16 39z" />
    <glyph glyph-name="semicolon.ss06" horiz-adv-x="285" 
d="M100 363q-16 16 -16 38q0 23 16 39t39 16q22 0 37.5 -16t15.5 -39q0 -22 -15.5 -38t-37.5 -16q-23 0 -39 16zM142 81l61 -33l-83 -149l-61 35z" />
    <glyph glyph-name="exclam.ss06" horiz-adv-x="284" 
d="M104 761h77v-540h-77v540zM104 93.5q16 15.5 39 15.5q22 0 37.5 -16t15.5 -38q0 -23 -15.5 -39t-37.5 -16q-23 0 -39 16t-16 39t16 38.5z" />
    <glyph glyph-name="exclamdown.ss06" horiz-adv-x="284" 
d="M181 319v-540h-77v540h77zM104 524q16 16 39 16q22 0 37.5 -16t15.5 -39q0 -22 -15.5 -38t-37.5 -16q-23 0 -39 15.5t-16 38.5t16 39z" />
    <glyph glyph-name="question.ss06" horiz-adv-x="527" 
d="M228.5 334q10.5 35 34.5 63.5t68 61.5q33 25 49.5 53.5t16.5 70.5q0 54 -37.5 87.5t-94.5 33.5q-64 0 -103 -40.5t-39 -101.5h-84q0 58 28 106t79.5 76.5t119.5 28.5q57 0 106 -22.5t78 -65.5t29 -102q0 -56 -26.5 -99.5t-84.5 -86.5q-33 -24 -49.5 -46.5t-21.5 -46.5
t-5 -61v-15h-74v18q0 53 10.5 88zM224 93.5q16 15.5 38 15.5q23 0 38.5 -15.5t15.5 -38.5t-16 -39t-38 -16t-38 16t-16 39t16 38.5z" />
    <glyph glyph-name="questiondown.ss06" horiz-adv-x="527" 
d="M298.5 206q-10.5 -35 -34.5 -63.5t-68 -61.5q-33 -25 -49.5 -53.5t-16.5 -70.5q0 -54 37.5 -87.5t94.5 -33.5q64 0 103 40.5t39 101.5h84q0 -58 -28 -106t-79.5 -76.5t-119.5 -28.5q-57 0 -106 22.5t-78 65.5t-29 102q0 56 26.5 99.5t84.5 86.5q33 24 49.5 46.5
t21.5 46.5t5 61v15h74v-18q0 -53 -10.5 -88zM303.5 447q-15.5 -16 -38.5 -16q-22 0 -38 16t-16 38q0 23 16 39t38 16t38 -16t16 -39q0 -22 -15.5 -38z" />
    <glyph glyph-name="exclam.ss09" horiz-adv-x="794" 
d="M273 158l460 262l34 -69l-459 -258zM94 119h124v-119h-124v119zM80 761h76v-530h-76v530zM187 220l250 469l68 -38l-251 -469z" />
    <glyph glyph-name="asterisk.ss09" horiz-adv-x="816" 
d="M63 429h194l-173 103l37 63l196 -115l-126 202l62 39l119 -191v222h73v-221l118 190l61 -39l-125 -202l195 115l38 -63l-173 -103h193v-72h-689v72z" />
    <glyph glyph-name="periodcentered.loclCAT.case" 
d="M-125 468v-115h-115v115h115z" />
    <glyph glyph-name="exclamdown.case.ss06" horiz-adv-x="284" 
d="M181 531v-540h-77v540h77zM104 736q16 16 39 16q22 0 37.5 -16t15.5 -39q0 -22 -15.5 -38t-37.5 -16q-23 0 -39 15.5t-16 38.5t16 39z" />
    <glyph glyph-name="questiondown.case.ss06" horiz-adv-x="527" 
d="M298.5 418q-10.5 -35 -34.5 -63.5t-68 -61.5q-33 -25 -49.5 -53.5t-16.5 -70.5q0 -54 37.5 -87.5t94.5 -33.5q64 0 103 40.5t39 101.5h84q0 -58 -28 -106t-79.5 -76.5t-119.5 -28.5q-57 0 -106 22.5t-78 65.5t-29 102q0 56 26.5 99.5t84.5 86.5q33 24 49.5 46.5
t21.5 46.5t5 61v15h74v-18q0 -53 -10.5 -88zM303.5 659q-15.5 -16 -38.5 -16q-22 0 -38 16t-16 38q0 23 16 39t38 16t38 -16t16 -39q0 -22 -15.5 -38z" />
    <glyph glyph-name="periodcentered.loclCAT.ss06" horiz-adv-x="138" 
d="M31 319q-16 16 -16 39t16 38.5t39 15.5q22 0 37.5 -16t15.5 -38q0 -23 -15.5 -39t-37.5 -16q-23 0 -39 16z" />
    <glyph glyph-name="periodcentered.loclCAT.case.ss06" 
d="M-220 372q-16 16 -16 39t15.5 38.5t38.5 15.5q22 0 38 -15.5t16 -38.5t-16 -39t-38 -16t-38 16z" />
    <glyph glyph-name="hyphen" unicode="-" horiz-adv-x="483" 
d="M55 380h373v-73h-373v73z" />
    <glyph glyph-name="uni00AD" unicode="&#xad;" horiz-adv-x="483" 
d="M55 380h373v-73h-373v73z" />
    <glyph glyph-name="endash" unicode="&#x2013;" horiz-adv-x="661" 
d="M59 379h543v-76h-543v76z" />
    <glyph glyph-name="emdash" unicode="&#x2014;" horiz-adv-x="661" 
d="M59 380h543v-78h-543v78z" />
    <glyph glyph-name="underscore" unicode="_" horiz-adv-x="872" 
d="M56 -2h761v-71h-761v71z" />
    <glyph glyph-name="parenleft" unicode="(" horiz-adv-x="274" 
d="M110.5 -80q-35.5 50 -35.5 109v635q0 59 35.5 109t97.5 77l34 -66q-89 -39 -89 -116v-641q0 -75 87 -116l-32 -68q-62 27 -97.5 77z" />
    <glyph glyph-name="parenright" unicode=")" horiz-adv-x="274" 
d="M121 27v641q0 77 -89 116l34 66q62 -27 97.5 -77t35.5 -109v-635q0 -59 -35.5 -109t-97.5 -77l-32 68q87 41 87 116z" />
    <glyph glyph-name="braceleft" unicode="{" horiz-adv-x="317" 
d="M115 467v257q0 60 29.5 91.5t84.5 31.5q25 0 60 -8v-68q-24 7 -44 7q-59 0 -59 -66v-258q0 -42 -11 -70.5t-40 -41.5q29 -13 40 -41.5t11 -70.5v-257q0 -67 59 -67q20 0 44 7v-67q-31 -8 -62 -8q-54 0 -83 31t-29 92v256q0 76 -60 76h-21v99h21q60 0 60 75z" />
    <glyph glyph-name="braceright" unicode="}" horiz-adv-x="317" 
d="M283 392v-99h-21q-60 0 -60 -76v-256q0 -61 -28.5 -92t-83.5 -31q-31 0 -62 8v67q24 -7 44 -7q59 0 59 67v257q0 42 11 70.5t40 41.5q-29 13 -40 41.5t-11 70.5v258q0 66 -59 66q-20 0 -44 -7v68q35 8 60 8q55 0 84.5 -31.5t29.5 -91.5v-257q0 -75 60 -75h21z" />
    <glyph glyph-name="bracketleft" unicode="[" horiz-adv-x="327" 
d="M87 851h217v-72h-141v-859h141v-73h-217v1004z" />
    <glyph glyph-name="bracketright" unicode="]" horiz-adv-x="327" 
d="M23 -153v73h141v859h-141v72h217v-1004h-217z" />
    <glyph glyph-name="uni300A" unicode="&#x300a;" horiz-adv-x="486" 
d="M50 390l149 362h96l-150 -362l150 -389h-96zM373 752h95l-151 -362l151 -389h-95l-149 389z" />
    <glyph glyph-name="uni300B" unicode="&#x300b;" horiz-adv-x="486" 
d="M191 1l150 389l-150 362h96l149 -362l-149 -389h-96zM169 390l-151 362h95l149 -362l-149 -389h-95z" />
    <glyph glyph-name="uni3010" unicode="&#x3010;" horiz-adv-x="600" 
d="M40 845v-982h507v47q-47 20 -103.5 68.5t-101.5 140.5t-45 225q0 147 43 243.5t98.5 144.5t108.5 69v44h-507z" />
    <glyph glyph-name="uni3011" unicode="&#x3011;" horiz-adv-x="600" 
d="M161.5 732q55.5 -48 98.5 -144.5t43 -243.5q0 -133 -45 -225t-101.5 -140.5t-103.5 -68.5v-47h507v982h-507v-44q53 -21 108.5 -69z" />
    <glyph glyph-name="quotesinglbase" unicode="&#x201a;" horiz-adv-x="249" 
d="M123 -34.5q15 8.5 15 33.5h-70l1 115h115v-109q0 -38 -24.5 -62.5t-77.5 -22.5v37q26 0 41 8.5z" />
    <glyph glyph-name="quotedblbase" unicode="&#x201e;" horiz-adv-x="476" 
d="M123 -34.5q15 8.5 15 33.5h-70l1 115h115v-109q0 -38 -24.5 -62.5t-77.5 -22.5v37q26 0 41 8.5zM326 -34.5q15 8.5 15 33.5h-70l1 115h115v-109q0 -38 -24.5 -62.5t-77.5 -22.5v37q26 0 41 8.5z" />
    <glyph glyph-name="quotedblleft" unicode="&#x201c;" horiz-adv-x="417" 
d="M315 785.5q-15 -8.5 -15 -33.5h70l-1 -115h-115v109q0 38 24.5 62.5t77.5 22.5v-37q-26 0 -41 -8.5zM136 785.5q-15 -8.5 -15 -33.5h70l-1 -115h-115v109q0 38 24.5 62.5t77.5 22.5v-37q-26 0 -41 -8.5z" />
    <glyph glyph-name="quotedblright" unicode="&#x201d;" horiz-adv-x="411" 
d="M130 603.5q15 8.5 15 33.5h-70l1 115h115v-109q0 -38 -24.5 -62.5t-77.5 -22.5v37q26 0 41 8.5zM308 603.5q15 8.5 15 33.5h-70l1 115h115v-109q0 -38 -24.5 -62.5t-77.5 -22.5v37q26 0 41 8.5z" />
    <glyph glyph-name="quoteleft" unicode="&#x2018;" horiz-adv-x="240" 
d="M142 785.5q-15 -8.5 -15 -33.5h70l-1 -115h-115v109q0 38 24.5 62.5t77.5 22.5v-37q-26 0 -41 -8.5z" />
    <glyph glyph-name="quoteright" unicode="&#x2019;" horiz-adv-x="246" 
d="M154.5 808.5q24.5 -24.5 24.5 -62.5v-109h-115l-1 115h70q0 25 -15 33.5t-41 8.5v37q53 2 77.5 -22.5z" />
    <glyph glyph-name="guillemotleft" unicode="&#xab;" horiz-adv-x="621" 
d="M64 343l169 180h99l-171 -180l171 -192h-99zM280 343l169 180h99l-171 -180l171 -192h-99z" />
    <glyph glyph-name="guillemotright" unicode="&#xbb;" horiz-adv-x="621" 
d="M289 151l171 192l-171 180h99l169 -180l-169 -192h-99zM73 151l171 192l-171 180h99l169 -180l-169 -192h-99z" />
    <glyph glyph-name="guilsinglleft" unicode="&#x2039;" horiz-adv-x="436" 
d="M85 343l169 180h99l-171 -180l171 -192h-99z" />
    <glyph glyph-name="guilsinglright" unicode="&#x203a;" horiz-adv-x="436" 
d="M83 151l171 192l-171 180h99l169 -180l-169 -192h-99z" />
    <glyph glyph-name="quotedbl" unicode="&#x22;" horiz-adv-x="411" 
d="M123 603.5q15 8.5 15 33.5h-70l1 115h115v-109q0 -38 -24.5 -62.5t-77.5 -22.5v37q26 0 41 8.5zM298 603.5q15 8.5 15 33.5h-70l1 115h115v-109q0 -38 -24.5 -62.5t-77.5 -22.5v37q26 0 41 8.5z" />
    <glyph glyph-name="quotesingle" unicode="'" horiz-adv-x="240" 
d="M180 752v-108q0 -34 -22 -60t-79 -26v38q23 0 39 8t16 34h-68v114h114z" />
    <glyph glyph-name="quotesinglbase.ss06" horiz-adv-x="287" 
d="M60 -189l116 116l51 -50l-116 -117z" />
    <glyph glyph-name="quotedblleft.ss06" horiz-adv-x="388" 
d="M70 667q-16 16 -16 39t16 38.5t39 15.5q22 0 37.5 -15.5t15.5 -38.5t-15.5 -39t-37.5 -16q-23 0 -39 16zM242 744.5q16 15.5 38 15.5q23 0 38.5 -15.5t15.5 -38.5t-16 -39t-38 -16t-38 16t-16 39t16 38.5z" />
    <glyph glyph-name="quotedblright.ss06" horiz-adv-x="388" 
d="M70 667q-16 16 -16 39t16 38.5t39 15.5q22 0 37.5 -15.5t15.5 -38.5t-15.5 -39t-37.5 -16q-23 0 -39 16zM242 744.5q16 15.5 38 15.5q23 0 38.5 -15.5t15.5 -38.5t-16 -39t-38 -16t-38 16t-16 39t16 38.5z" />
    <glyph glyph-name="quoteleft.ss06" horiz-adv-x="217" 
d="M70 667q-16 16 -16 39t16 38.5t39 15.5q22 0 37.5 -15.5t15.5 -38.5t-15.5 -39t-37.5 -16q-23 0 -39 16z" />
    <glyph glyph-name="quoteright.ss06" horiz-adv-x="217" 
d="M70 667q-16 16 -16 39t16 38.5t39 15.5q22 0 37.5 -15.5t15.5 -38.5t-15.5 -39t-37.5 -16q-23 0 -39 16z" />
    <glyph glyph-name="quotedbl.ss06" horiz-adv-x="388" 
d="M70 667q-16 16 -16 39t16 38.5t39 15.5q22 0 37.5 -15.5t15.5 -38.5t-15.5 -39t-37.5 -16q-23 0 -39 16zM242 744.5q16 15.5 38 15.5q23 0 38.5 -15.5t15.5 -38.5t-16 -39t-38 -16t-38 16t-16 39t16 38.5z" />
    <glyph glyph-name="quotesingle.ss06" horiz-adv-x="217" 
d="M70 671q-16 16 -16 39t16 38.5t39 15.5q22 0 37.5 -15.5t15.5 -38.5t-15.5 -39t-37.5 -16q-23 0 -39 16z" />
    <glyph glyph-name="florin" unicode="&#x191;" horiz-adv-x="344" 
d="M21 467v73h95v84q0 70 43.5 105.5t106.5 35.5q34 0 61 -8v-70q-24 8 -46 8q-38 0 -62.5 -22t-24.5 -65v-68h135v-73h-135v-551q0 -69 -44.5 -105.5t-107.5 -36.5q-30 0 -59 9v70q21 -7 46 -7q38 0 62.5 21.5t24.5 64.5v535h-95z" />
    <glyph glyph-name="florin" unicode="&#x192;" horiz-adv-x="344" 
d="M21 467v73h95v84q0 70 43.5 105.5t106.5 35.5q34 0 61 -8v-70q-24 8 -46 8q-38 0 -62.5 -22t-24.5 -65v-68h135v-73h-135v-551q0 -69 -44.5 -105.5t-107.5 -36.5q-30 0 -59 9v70q21 -7 46 -7q38 0 62.5 21.5t24.5 64.5v535h-95z" />
    <glyph glyph-name="smileface" unicode="&#x263a;" horiz-adv-x="1111" 
d="M408.5 26q-86.5 48 -141.5 129q-59 0 -106 28t-73.5 74.5t-26.5 97.5h57q0 -55 34 -96t86 -51q-38 81 -38 165q0 107 53 198t144 144t198 53t198 -53t144 -144t53 -198q0 -108 -53 -198.5t-144 -143.5t-198 -53q-100 0 -186.5 48zM85 454.5q-17 17.5 -17 42.5t17 42.5
t42 17.5t42.5 -17.5t17.5 -42.5t-17.5 -42.5t-42.5 -17.5t-42 17.5zM383 454.5q-17 17.5 -17 42.5t17 42.5t42 17.5t42.5 -17.5t17.5 -42.5t-17.5 -42.5t-42.5 -17.5t-42 17.5zM762.5 84q76.5 45 121.5 121.5t45 167.5q0 90 -45 167t-122 122t-167 45t-167 -45t-122 -122
t-45 -167q0 -93 37 -165q51 11 84.5 52t33.5 95h57q0 -64 -40 -118.5t-106 -73.5q46 -60 115.5 -92t152.5 -32q91 0 167.5 45z" />
    <glyph glyph-name="sun" unicode="&#x263c;" horiz-adv-x="660" 
d="M298 309l-144 -143l-44 44l145 144h-205l1 62h204l-145 145l44 44l144 -145l1 205l61 -1v-205l146 146l44 -44l-145 -144l204 -2l1 -61h-205l145 -144l-44 -44l-146 144v-204l-62 -1v204z" />
    <glyph glyph-name="at" unicode="@" horiz-adv-x="944" 
d="M237.5 -84q-90.5 54 -139 139.5t-48.5 189.5q0 14 2 42q10 125 75.5 220t167.5 146.5t218 51.5q107 0 194 -42.5t137 -122t50 -186.5q0 -67 -21 -142q-26 -94 -76.5 -150t-125.5 -56q-27 0 -47 5q-35 9 -55.5 31.5t-25.5 55.5q-36 -25 -81 -38.5t-85 -13.5
q-56 0 -91.5 31.5t-35.5 79.5q0 103 144 146l63 17q30 7 55 15t48 18q41 17 41 52q0 45 -79 45q-46 0 -81.5 -20.5t-58.5 -56.5l-67 22q34 60 89 90.5t122 30.5q70 0 107 -32.5t37 -86.5q0 -24 -5 -43l-50 -208q-2 -7 -2 -20q0 -24 14 -38t39 -14q47 0 85 45t56 138
q10 43 10 88q0 86 -37.5 151t-103 100t-147.5 35q-108 0 -196 -43.5t-142 -123t-63 -183.5q-1 -11 -1 -32q0 -86 41 -157.5t115.5 -116t170.5 -53.5l-6 -73q-120 13 -210.5 67zM342.5 126q17.5 -13 49.5 -13q38 0 82 17t76 44l32 123q-29 -14 -58.5 -23.5t-74.5 -21.5
q-53 -15 -69.5 -20.5t-35.5 -22.5t-19 -44q0 -26 17.5 -39z" />
    <glyph glyph-name="ampersand" unicode="&#x26;" horiz-adv-x="698" 
d="M116.5 37.5q-66.5 50.5 -66.5 141.5q0 120 178 209q-111 109 -111 205q0 80 52 125.5t137 45.5q83 0 134.5 -48t51.5 -126q0 -67 -41 -118t-109 -94l158 -176q13 28 21.5 85t8.5 99h77q0 -61 -12.5 -134t-34.5 -116l88 -95l-52 -51l-79 83q-44 -43 -100 -64.5t-120 -21.5
q-114 0 -180.5 50.5zM389 79q41 18 72 54l-183 206q-65 -36 -104 -73t-39 -89q0 -56 45 -86t122 -30q46 0 87 18zM384 498.5q32 34.5 32 90.5q0 49 -30.5 76t-79.5 28q-48 0 -78.5 -25t-30.5 -75q0 -41 25.5 -79.5t69.5 -83.5q60 34 92 68.5z" />
    <glyph glyph-name="paragraph" unicode="&#xb6;" horiz-adv-x="620" 
d="M258 342h-31q-56 0 -103 27.5t-74.5 74.5t-27.5 103t27 103t74 74.5t104 27.5h304v-752h-73v684h-127v-684h-73v342zM135 449.5q38 -40.5 96 -40.5h25v278h-25q-58 0 -96 -40.5t-38 -98.5t38 -98.5z" />
    <glyph glyph-name="section" unicode="&#xa7;" horiz-adv-x="578" 
d="M182 -127.5q-48 25.5 -74 69.5t-28 98h79q3 -59 38.5 -92t98.5 -33q49 0 75 21.5t26 59.5q0 24 -13.5 42t-39.5 34.5t-82 47.5l-28 15q-74 40 -115.5 68.5t-66 63.5t-24.5 81q0 52 30 86t83 51q-40 42 -40 95q0 68 50.5 110t133.5 42q88 0 140.5 -48t57.5 -129h-78
q-4 53 -35 81.5t-85 28.5q-50 0 -76 -23t-26 -59q0 -28 16.5 -48t44.5 -37t92 -50q72 -37 114 -64t68.5 -63.5t26.5 -84.5q0 -52 -29.5 -87t-83.5 -51q23 -22 35 -46.5t12 -54.5q0 -69 -49 -109.5t-134 -40.5q-66 0 -114 25.5zM446 172.5q20 25.5 20 57.5q0 30 -18 52.5
t-49.5 42t-98.5 54.5q-81 42 -113 65q-39 -9 -60 -32t-21 -57q0 -29 15.5 -50.5t46.5 -41.5t100 -59l116 -68q42 11 62 36.5z" />
    <glyph glyph-name="copyright" unicode="&#xa9;" horiz-adv-x="674" 
d="M198.5 251q-63.5 37 -100.5 100t-37 138t37 138t100.5 100t138.5 37t138 -37t100 -100t37 -138t-37 -138t-100 -100t-138 -37t-138.5 37zM153.5 382.5q28.5 -48.5 77 -77t106.5 -28.5t106.5 28.5t77 77t28.5 106.5t-28.5 106.5t-77 77t-106.5 28.5t-106.5 -28.5t-77 -77
t-28.5 -106.5t28.5 -106.5zM241 594q39 41 99 41q43 0 76.5 -23t49.5 -62l-52 -14q-11 20 -30.5 32t-42.5 12q-38 0 -62 -25t-24 -68q0 -41 24.5 -68t61.5 -27q27 0 47.5 15.5t30.5 41.5l52 -11q-13 -45 -48.5 -72.5t-82.5 -27.5q-39 0 -70.5 19.5t-49.5 53.5t-18 76
q0 66 39 107z" />
    <glyph glyph-name="registered" unicode="&#xae;" horiz-adv-x="677" 
d="M199.5 247q-63.5 37 -101 101t-37.5 139q0 76 37.5 139.5t101 100.5t139.5 37q75 0 139 -37t101 -100.5t37 -139.5q0 -75 -37.5 -138.5t-101 -101t-138.5 -37.5q-76 0 -139.5 37zM153.5 380q28.5 -49 78 -78t107.5 -29t107 29t77.5 78t28.5 107t-28.5 107t-77.5 78
t-107 29t-107.5 -29t-78 -78t-28.5 -107t28.5 -107zM233 629h132q42 0 67.5 -23.5t25.5 -61.5q0 -25 -14 -47t-37 -33l65 -116h-56l-60 110h-73v-110h-50v281zM391.5 514q14.5 10 14.5 31q0 38 -54 38h-68v-79h68q25 0 39.5 10z" />
    <glyph glyph-name="trademark" unicode="&#x2122;" horiz-adv-x="511" 
d="M113 710h-64v42h178v-42h-68v-170h-46v170zM263 752h48l53 -151l51 151h48v-212h-44v109l-37 -109h-36l-39 111v-111h-44v212z" />
    <glyph glyph-name="degree" unicode="&#xb0;" horiz-adv-x="465" 
d="M144 417q-40 23 -63 63.5t-23 90.5t23 91t63 64t89 23t89 -23t63 -64t23 -91t-23 -90.5t-63 -63.5t-89 -23t-89 23zM154 487.5q32 -33.5 79 -33.5q46 0 78.5 33.5t32.5 83.5t-32.5 84t-78.5 34q-47 0 -79 -34t-32 -84t32 -83.5z" />
    <glyph glyph-name="bar" unicode="|" horiz-adv-x="256" 
d="M90 866h76v-1050h-76v1050z" />
    <glyph glyph-name="brokenbar" unicode="&#xa6;" horiz-adv-x="256" 
d="M90 747h76v-292h-76v292zM90 303h76v-292h-76v292z" />
    <glyph glyph-name="estimated" unicode="&#x212e;" horiz-adv-x="624" 
d="M548 104q-102 -111 -229 -111q-76 0 -136.5 30.5t-95 90t-34.5 142.5q0 81 30.5 146t89 103t139.5 38q79 0 138 -35t90 -93t31 -124v-48h-403v-131q41 -68 151 -65q56 2 101.5 24.5t93.5 70.5zM451 431q-39 58 -139 58q-91 0 -144 -66v-126h283v134z" />
    <glyph glyph-name="uni2322" unicode="&#x2322;" horiz-adv-x="1067" 
d="M258 31q-91 53 -144 143.5t-53 198.5q0 107 53 198t144 144t198 53q104 0 192 -49.5t142.5 -135t59.5 -188.5q63 -21 101.5 -74.5t38.5 -115.5h-57q0 44 -23 80.5t-60 54.5q-9 -97 -64 -180t-142 -132.5t-188 -49.5q-107 0 -198 53zM620.5 77q74.5 38 120 109.5
t49.5 168.5h-6q-40 0 -74.5 -20t-54.5 -54.5t-20 -75.5h-57q0 51 26.5 97.5t73.5 74.5t106 28h4q-8 83 -54.5 152.5t-119.5 109.5t-158 40q-90 0 -167 -45t-122 -122t-45 -167q0 -91 45 -167.5t121.5 -121.5t167.5 -45q90 0 164.5 38zM583.5 454.5q-17.5 17.5 -17.5 42.5
t17.5 42.5t42.5 17.5t42 -17.5t17 -42.5t-17 -42.5t-42 -17.5t-42.5 17.5zM881.5 454.5q-17.5 17.5 -17.5 42.5t17.5 42.5t42.5 17.5t42 -17.5t17 -42.5t-17 -42.5t-42 -17.5t-42.5 17.5z" />
    <glyph glyph-name="at.alt" horiz-adv-x="798" 
d="M219.5 -8q-79.5 46 -124.5 127.5t-45 182.5t43.5 183.5t123 130t183.5 47.5t183 -47.5t122 -130t43 -183.5t-44.5 -182.5t-124 -127.5t-179.5 -46q-101 0 -180.5 46zM160.5 155q35.5 -65 98.5 -101.5t141 -36.5t140.5 36.5t98.5 101.5t36 148q0 82 -34 147.5t-96.5 103
t-144.5 37.5q-81 0 -143.5 -37.5t-97 -103t-34.5 -147.5q0 -83 35.5 -148zM271.5 278q17.5 20 37 28t52.5 17l40 11q45 12 61 21t16 28t-19 30t-46 11q-29 0 -54 -14t-34 -37l-59 19q13 41 52 63.5t95 22.5q62 0 96 -30t34 -85v-224h-57v39q-22 -22 -53.5 -34t-68.5 -12
q-47 0 -78.5 26t-31.5 66q0 34 17.5 54zM334 198.5q16 -11.5 42 -11.5q30 0 61 13t45 30v82q-8 -12 -28 -19t-66 -19q-37 -8 -53.5 -17.5t-16.5 -27.5q0 -19 16 -30.5z" />
    <glyph glyph-name="at.ss01" horiz-adv-x="1169" 
d="M317.5 -8q-122.5 42 -195 121.5t-72.5 188.5q0 108 72.5 189t195.5 124.5t268 43.5t267 -43.5t194 -124.5t72 -189q0 -109 -72 -188.5t-193.5 -121.5t-267.5 -42t-268.5 42zM191.5 150.5q62.5 -63.5 167 -96t227.5 -32.5t227 32.5t166.5 96t62.5 152.5q0 88 -62.5 152
t-167 97.5t-226.5 33.5t-226.5 -33.5t-167.5 -97.5t-63 -152q0 -89 62.5 -152.5zM356 269.5q15 17.5 31.5 24t44.5 15.5l34 10q38 11 51.5 18t13.5 23t-16 25.5t-38 9.5q-25 0 -46.5 -12t-29.5 -32l-49 17q10 35 43.5 54.5t81.5 19.5q52 0 81 -25.5t29 -73.5v-192h-49v32
q-40 -38 -104 -38q-39 0 -66 22.5t-27 55.5q0 29 15 46.5zM409 202q14 -10 36 -10q25 0 51.5 11t38.5 26v70q-5 -8 -17 -13t-29.5 -10t-33.5 -9q-31 -7 -45.5 -15.5t-14.5 -23.5q0 -16 14 -26zM638 421h51v89h54v-89h52v-48h-51v-116q0 -32 5 -46t14 -17t30 -3l-7 -50
q-49 0 -69.5 15t-24 36.5t-3.5 70.5v110h-51v48z" />
    <glyph glyph-name="copyright.ss01" horiz-adv-x="639" 
d="M184 243q-65 38 -103 103t-38 142q0 76 38 140.5t103 103t142 38.5t142 -38.5t103 -103t38 -140.5q0 -77 -38 -142t-103 -103t-142 -38t-142 38zM404.5 370q30.5 24 42.5 68l-42 9q-8 -26 -27.5 -41.5t-43.5 -15.5q-37 0 -61 27.5t-24 66.5t24 65t64 26q21 0 40 -11.5
t27 -34.5l41 10q-12 36 -42 57.5t-69 21.5q-58 0 -94.5 -38t-36.5 -96q0 -57 35.5 -97.5t96.5 -40.5q39 0 69.5 24z" />
    <glyph glyph-name="registered.ss01" horiz-adv-x="669" 
d="M193 243q-65 38 -103 103t-38 142q0 76 38 140.5t103 103t142 38.5t142 -38.5t103 -103t38 -140.5q0 -77 -38 -142t-103 -103t-142 -38t-142 38zM284 363v104l77 -1l54 -104l49 1l-59 113q22 9 33 28.5t11 42.5q0 32 -24.5 52.5t-64.5 20.5h-118v-257h42zM283 583h73
q23 0 35.5 -9t12.5 -26t-13.5 -31t-34.5 -14h-73v80z" />
    <glyph glyph-name="at.ss02" horiz-adv-x="808" 
d="M50 669h708v-278q0 -93 -43 -162.5t-115.5 -106t-160.5 -36.5q-64 0 -115.5 25t-81 70.5t-29.5 105.5q0 55 25.5 101t71.5 72.5t105 26.5q56 0 101.5 -25.5t71 -69.5t25.5 -97q0 -32 -7.5 -61.5t-31.5 -54.5q114 66 114 238v179h-564v-606h602v-75h-676v754zM481 170.5
q31 18.5 49.5 49.5t18.5 67q0 37 -18.5 68t-49.5 49.5t-68 18.5q-36 0 -67 -18.5t-49.5 -49.5t-18.5 -68q0 -36 18.5 -67t49.5 -49.5t67 -18.5q37 0 68 18.5z" />
    <glyph glyph-name="at.ss05" horiz-adv-x="922" 
d="M242.5 -52.5q-95.5 51.5 -149 143t-53.5 208.5q0 120 53 213.5t148 145.5t216 52q119 0 212 -49.5t145 -138.5t52 -203v-127q0 -67 -33 -103.5t-88 -36.5q-42 0 -75 22.5t-44 58.5q-70 -83 -187 -83q-71 0 -128 33t-89 89t-32 124q0 67 32.5 123.5t90.5 90t132 33.5
q56 0 98 -20.5t81 -60.5v40h65v-311q0 -36 16.5 -55t39.5 -19q21 0 36 18t15 49v148q0 90 -43.5 161t-121 110.5t-176.5 39.5t-176.5 -44.5t-121 -123.5t-43.5 -180q0 -98 44 -175t122.5 -120t178.5 -43v-61q-121 0 -216.5 51.5zM289 203q24 -41 65 -64.5t91 -23.5
q51 0 91 23.5t62 64.5t22 91q0 51 -22 92.5t-62 65t-92 23.5q-49 0 -90 -24t-65 -65t-24 -92q0 -50 24 -91z" />
    <glyph glyph-name="ampersand.ss09" horiz-adv-x="716" 
d="M139 23q-48 27 -75 75.5t-27 108.5q0 56 28 103t76 74.5t106 27.5q-41 33 -66 79t-25 96q0 77 54.5 125.5t145.5 48.5q57 0 102.5 -26t71 -74.5t25.5 -114.5h-71q0 67 -33 105.5t-98 38.5q-53 0 -85 -30t-32 -77q0 -39 14.5 -65t51.5 -65l426 -453h-107l-174 178
q0 -54 -27.5 -95.5t-73.5 -64t-98 -22.5q-61 0 -109 27zM131 135q18 -31 48.5 -49t67.5 -18q38 0 69.5 18.5t49.5 50t18 67.5q0 37 -19 68.5t-50.5 50t-68.5 18.5t-67.5 -19t-48 -51t-17.5 -68q0 -37 18 -68z" />
    <glyph glyph-name="trademark.ss09" horiz-adv-x="747" 
d="M364 752h71l80 -242l81 242h70v-315h-49v232l-77 -232h-48l-78 234v-234h-50v315zM38 752h271v-51h-108v-264h-54v264h-109v51z" />
    <glyph glyph-name="uni20BF" unicode="&#x20bf;" horiz-adv-x="627" 
d="M53 72h55v287h-45v75h45v249h-55v69h143v52h63v-52h53v53h63v-57q87 0 131 -50t44 -134q0 -115 -86 -166q57 -23 87.5 -70t30.5 -110q0 -95 -49 -155t-145 -60v-60h-63v57h-53v-58h-63v58h-156v72zM441 467q38 33 38 91q0 56 -38 89t-114 33h-145v-246h161q60 0 98 33z
M345 73q162 0 162 145q0 141 -170 141h-155v-286h163z" />
    <glyph glyph-name="cent" unicode="&#xa2;" horiz-adv-x="583" 
d="M275 -11q-109 10 -172 85t-63 196t63 195.5t172 84.5v97h56v-97q72 -8 129.5 -50.5t84.5 -109.5l-73 -20q-19 44 -56.5 72.5t-84.5 35.5v-418q52 8 91.5 42.5t58.5 89.5l74 -17q-24 -79 -84 -128.5t-140 -57.5v-85h-56v85zM159.5 126q42.5 -56 115.5 -66v418
q-73 -10 -115.5 -65.5t-42.5 -142.5q0 -88 42.5 -144z" />
    <glyph glyph-name="currency" unicode="&#xa4;" horiz-adv-x="591" 
d="M103 211l50 50q-24 43 -24 95q0 53 23 94l-49 49l43 44l48 -48q42 33 107 33q64 0 108 -32l47 47l43 -44l-49 -50q23 -40 23 -93q0 -56 -24 -95l50 -50l-44 -44l-47 48q-45 -31 -107 -31q-63 0 -106 31l-48 -48zM382.5 275q29.5 30 29.5 81q0 52 -29.5 82t-81.5 30
q-51 0 -81 -30t-30 -82q0 -51 30 -81t81 -30q52 0 81.5 30z" />
    <glyph glyph-name="dollar" unicode="$" horiz-adv-x="623" 
d="M121 93.5q-70 47.5 -82 136.5l77 16q6 -61 54 -94.5t115 -40.5v237q-105 14 -163.5 59.5t-59.5 121.5q1 82 60 129t163 55v89h65v-89q87 -8 151.5 -52t74.5 -122l-79 -15q-8 55 -48 83t-99 33v-228q239 -29 238 -189q1 -84 -60 -130.5t-178 -54.5v-93h-65v93
q-94 8 -164 55.5zM180 457q37 -26 105 -35v220q-68 -6 -105 -36.5t-37 -81.5q0 -41 37 -67zM510 228q0 92 -160 112v-229q160 11 160 117z" />
    <glyph glyph-name="Euro" unicode="&#x20ac;" horiz-adv-x="630" 
d="M263.5 23.5q-49.5 24.5 -78.5 70t-29 105.5v75h-97v55h97v90h-97v59h97v75q0 64 30 109t79 68t107 23q77 0 131 -29.5t80 -81.5l-65 -38q-37 73 -144 73q-59 0 -97.5 -32t-38.5 -98v-69h226v-59h-226v-90h226v-55h-226v-67q0 -61 38 -96t95 -35q52 0 89.5 17t57.5 60
l65 -38q-28 -60 -85.5 -88t-127.5 -28q-57 0 -106.5 24.5z" />
    <glyph glyph-name="sterling" unicode="&#xa3;" horiz-adv-x="567" 
d="M121 100q31 27 31 66v169h-106v74h106v183q0 43 21.5 80t59 58.5t83.5 21.5t85.5 -22.5t60.5 -62.5l-69 -37q-12 22 -32 34.5t-44 12.5q-38 0 -63 -26t-25 -65v-177h178v-74h-178v-173q0 -21 -7.5 -41t-26.5 -47h168q39 0 70 19.5t48 56.5l68 -32q-26 -55 -74.5 -86.5
t-107.5 -31.5h-321v73q44 0 75 27z" />
    <glyph glyph-name="yen" unicode="&#xa5;" horiz-adv-x="525" 
d="M221 203h-156v60h156v89h-156v61h126l-160 339h87l145 -315l148 315h83l-159 -339h126v-61h-156v-89h156v-60h-156v-203h-84v203z" />
    <glyph glyph-name="uni2219" unicode="&#x2219;" horiz-adv-x="367" 
d="M137.5 273.5q-19.5 19.5 -19.5 46.5t19.5 46.5t46.5 19.5t46 -19.5t19 -46.5t-19 -46.5t-46 -19.5t-46.5 19.5z" />
    <glyph glyph-name="uni2215" unicode="&#x2215;" horiz-adv-x="448" 
d="M381 755h50l-364 -755h-50z" />
    <glyph glyph-name="plus" unicode="+" horiz-adv-x="693" 
d="M307 319h-248v75h248v250h78v-250h249v-75h-249v-250h-78v250z" />
    <glyph glyph-name="minus" unicode="&#x2212;" horiz-adv-x="693" 
d="M59 394h575v-75h-575v75z" />
    <glyph glyph-name="multiply" unicode="&#xd7;" horiz-adv-x="693" 
d="M292 358l-175 175l53 54l176 -176l177 178l55 -56l-177 -176l176 -177l-53 -53l-177 176l-176 -176l-55 54z" />
    <glyph glyph-name="divide" unicode="&#xf7;" horiz-adv-x="693" 
d="M213 518.5q-40 40.5 -40 101.5q0 40 18.5 72.5t50.5 51t71 18.5q60 0 100 -40.5t40 -101.5t-40 -101.5t-100 -40.5t-100 40.5zM213 28.5q-40 40.5 -40 101.5q0 40 18.5 73t50.5 51.5t71 18.5q60 0 100 -41t40 -102t-40 -101.5t-100 -40.5t-100 40.5zM369.5 70
q23.5 24 23.5 60q0 35 -23.5 59t-56.5 24t-57 -24t-24 -59t24 -59.5t57 -24.5t56.5 24zM56 414h515v-66h-515v66zM369.5 559.5q23.5 24.5 23.5 60.5q0 35 -23.5 59t-56.5 24t-57 -24t-24 -59q0 -36 24 -60.5t57 -24.5t56.5 24.5z" />
    <glyph glyph-name="equal" unicode="=" horiz-adv-x="693" 
d="M101 496h493v-72h-493v72zM101 295h493v-72h-493v72z" />
    <glyph glyph-name="notequal" unicode="&#x2260;" horiz-adv-x="693" 
d="M101 496h294l42 94l42 -19l-34 -75h149v-72h-181l-58 -129h239v-72h-272l-65 -145l-42 20l56 125h-170v72h203l58 129h-261v72z" />
    <glyph glyph-name="greater" unicode="&#x3e;" horiz-adv-x="436" 
d="M83 151l171 192l-171 180h99l169 -180l-169 -192h-99z" />
    <glyph glyph-name="less" unicode="&#x3c;" horiz-adv-x="436" 
d="M85 343l169 180h99l-171 -180l171 -192h-99z" />
    <glyph glyph-name="plusminus" unicode="&#xb1;" horiz-adv-x="693" 
d="M137 196h420v-76h-420v76zM139 488h171v162h73v-162h173v-72h-173v-162h-73v162h-171v72z" />
    <glyph glyph-name="approxequal" unicode="&#x2248;" horiz-adv-x="693" 
d="M166.5 417q29.5 30 78.5 30q25 0 52.5 -6t66.5 -18q34 -10 56.5 -15.5t40.5 -5.5q51 0 54 49h62q-3 -56 -31 -86t-80 -30q-27 0 -56 6.5t-73 18.5q-64 20 -91 20q-22 0 -34.5 -13t-13.5 -38h-63q2 58 31.5 88zM166.5 256.5q29.5 30.5 78.5 30.5q24 0 50.5 -6t68.5 -19
q34 -10 56.5 -15.5t40.5 -5.5q51 0 54 50h62q-3 -57 -31 -87t-80 -30q-26 0 -52.5 6t-76.5 20q-26 8 -50.5 14t-40.5 6q-22 0 -34 -13.5t-14 -37.5h-63q2 57 31.5 87.5z" />
    <glyph glyph-name="asciitilde" unicode="~" horiz-adv-x="693" 
d="M394.5 287.5q-18.5 7.5 -42.5 20.5q-23 12 -39 18.5t-31 6.5q-24 0 -40 -13.5t-19 -36.5h-77q0 52 35 87.5t88 35.5q22 0 41.5 -8t44.5 -22q24 -13 38.5 -19t29.5 -6q22 0 37.5 14t15.5 36h72q0 -53 -31.5 -87t-84.5 -34q-19 0 -37.5 7.5z" />
    <glyph glyph-name="logicalnot" unicode="&#xac;" horiz-adv-x="534" 
d="M399 324h-328v66h398v-252h-70v186z" />
    <glyph glyph-name="asciicircum" unicode="^" horiz-adv-x="693" 
d="M149 596l199 197l198 -197l-44 -43l-153 152l-153 -152z" />
    <glyph glyph-name="infinity" unicode="&#x221e;" horiz-adv-x="833" 
d="M82.5 180.5q-39.5 49.5 -39.5 124.5q0 74 40 124t112 50q56 0 97 -32t77 -89q37 58 76 89.5t92 31.5q70 0 112 -48t42 -126q0 -79 -42 -126.5t-112 -47.5q-54 0 -92.5 31.5t-75.5 88.5q-35 -56 -76 -88t-98 -32q-73 0 -112.5 49.5zM268 223.5q29 28.5 60 80.5
q-31 53 -60 82t-68 29q-42 0 -63.5 -31t-21.5 -79t21.5 -79t63.5 -31q39 0 68 28.5zM597 226q22 31 22 79t-22 79t-64 31q-36 0 -63 -28.5t-59 -82.5q32 -53 59 -81t63 -28q42 0 64 31z" />
    <glyph glyph-name="integral" unicode="&#x222b;" horiz-adv-x="400" 
d="M38 -165v65h2q23 -10 49 -10q30 0 49.5 17t19.5 54v646q0 66 34.5 100t94.5 34q40 0 69 -10v-66h-3q-23 10 -48 10q-30 0 -49 -16.5t-19 -53.5v-647q0 -66 -35 -100t-95 -34q-41 0 -69 11z" />
    <glyph glyph-name="uni2206" unicode="&#x2206;" horiz-adv-x="703" 
d="M29 22l295 732h41l297 -732v-22h-633v22zM104 60h459l-226 583z" />
    <glyph glyph-name="product" unicode="&#x220f;" horiz-adv-x="753" 
d="M639 713v-815h-84v740h-370v-740h-85v815h539z" />
    <glyph glyph-name="summation" unicode="&#x2211;" horiz-adv-x="614" 
d="M333 321v2l-293 314v78h514v-72h-415v-2l280 -296v-41l-283 -328v-2h423v-74h-519v74z" />
    <glyph glyph-name="radical" unicode="&#x221a;" horiz-adv-x="607" 
d="M122 249h-75v68h123l74 -192q11 -29 24 -68.5t17 -51.5h2l34 120l180 590h85l-254 -815h-78z" />
    <glyph glyph-name="partialdiff" unicode="&#x2202;" horiz-adv-x="585" 
d="M132.5 15.5q-48.5 28.5 -74 79t-25.5 114.5q0 76 29.5 136t82.5 94t120 34q45 0 82 -18t60 -53q-17 102 -82 168t-186 82v69q188 -18 271.5 -132.5t83.5 -286.5q0 -91 -28 -162.5t-83 -112t-135 -40.5q-67 0 -115.5 28.5zM333.5 78q36.5 29 56 77t19.5 103
q0 67 -37 109.5t-100 42.5q-71 0 -114 -55.5t-43 -145.5q0 -68 34 -114t100 -46q48 0 84.5 29z" />
    <glyph glyph-name="uni00B5" unicode="&#xb5;" horiz-adv-x="617" 
d="M540 0h-77v78q-20 -40 -71.5 -65t-110.5 -25q-77 0 -132 40v-248h-81v760h81v-349q6 -64 48.5 -98.5t101.5 -34.5q42 0 79.5 19t60.5 55t23 85v323h78v-540z" />
    <glyph glyph-name="percent" unicode="%" horiz-adv-x="716" 
d="M535 752h88l-445 -752h-88zM46 693q20 36 55 56t78 20t78 -20t55 -56t20 -80t-20 -79.5t-55 -56t-78 -20.5t-78 20.5t-55 56t-20 79.5t20 80zM119.5 549q24.5 -26 59.5 -26t59.5 26t24.5 64q0 37 -24.5 62.5t-59.5 25.5t-59.5 -25.5t-24.5 -62.5q0 -38 24.5 -64z
M403.5 219q20.5 36 55.5 56t78 20t78 -20t55 -56t20 -80q0 -43 -20 -79t-55 -56.5t-78 -20.5t-78 20.5t-55.5 56.5t-20.5 79q0 44 20.5 80zM476.5 75.5q24.5 -25.5 60.5 -25.5q35 0 59.5 26t24.5 63q0 38 -24.5 63.5t-59.5 25.5q-36 0 -60.5 -25.5t-24.5 -63.5t24.5 -63.5z
" />
    <glyph glyph-name="perthousand" unicode="&#x2030;" horiz-adv-x="1071" 
d="M535 752h88l-445 -753h-88zM46 690q20 36 55 56t78 20t78 -20t55 -56t20 -80t-20 -79.5t-55 -56t-78 -20.5t-78 20.5t-55 56t-20 79.5t20 80zM119.5 546q24.5 -26 59.5 -26t59.5 26t24.5 64q0 37 -24.5 63t-59.5 26t-59.5 -26t-24.5 -63q0 -38 24.5 -64zM406.5 224
q20.5 36 55.5 56t78 20t78 -20t55 -56t20 -80t-20 -79.5t-55 -56t-78 -20.5t-78 20.5t-55.5 56t-20.5 79.5t20.5 80zM479.5 80q24.5 -26 60.5 -26q35 0 59.5 26t24.5 64t-24.5 63.5t-59.5 25.5q-36 0 -60.5 -25.5t-24.5 -63.5t24.5 -64zM759 224q20 36 55.5 56t78.5 20
t78 -20t55 -56t20 -80t-20 -79.5t-55 -56t-78 -20.5t-78.5 20.5t-55.5 56t-20 79.5t20 80zM832.5 80q24.5 -26 60.5 -26q35 0 59.5 26.5t24.5 63.5q0 38 -24.5 63.5t-59.5 25.5q-36 0 -60.5 -25.5t-24.5 -63.5t24.5 -64z" />
    <glyph glyph-name="arrowup" unicode="&#x2191;" horiz-adv-x="581" 
d="M257 77l-1 377l-160 -163l-46 46l240 240l241 -241l-49 -43l-159 161l1 -377h-67z" />
    <glyph glyph-name="uni2197" unicode="&#x2197;" horiz-adv-x="477" 
d="M82 247l214 235l-209 20l57 43l283 -56l-22 -281l-43 20l-31 174l-250 -218z" />
    <glyph glyph-name="arrowright" unicode="&#x2192;" horiz-adv-x="600" 
d="M427 351l-161 159l43 48l241 -241l-240 -239l-46 46l163 160l-377 1v67z" />
    <glyph glyph-name="arrowdown" unicode="&#x2193;" horiz-adv-x="581" 
d="M323 184l159 161l49 -43l-241 -241l-240 240l46 46l160 -163l1 377h67z" />
    <glyph glyph-name="arrowleft" unicode="&#x2190;" horiz-adv-x="600" 
d="M550 285l-377 -1l163 -161l-46 -45l-240 239l241 241l43 -48l-161 -159l377 1v-67z" />
    <glyph glyph-name="uni2196" unicode="&#x2196;" horiz-adv-x="478" 
d="M114 420l2 -226h-64l-2 338l341 -2v-64l-229 2l266 -268l-48 -47z" />
    <glyph glyph-name="arrowboth" unicode="&#x2194;" horiz-adv-x="927" 
d="M754 400l-161 159l45 50l239 -242l-240 -240l-46 46l163 160l-377 1v67zM413 226l91 -4l-40 -3zM337 429l-15 -32l-119 -141l-31 5l19 -19l-4 -5h10l137 -136l-42 -48l-156 200zM197 237l216 -11l-210 30l-12 -14z" />
    <glyph glyph-name="arrowupdn" unicode="&#x2195;" horiz-adv-x="708" 
d="M392 106l131 133l17 -11l-158 -164l-158 161l17 16l23 -24l16 341l-131 -161l-34 74l224 202l199 -247l-17 -17l-132 135l-41 -371l-75 35l99 -102l1 286h20z" />
    <glyph glyph-name="uni25CC" unicode="&#x25cc;" horiz-adv-x="750" 
d="M342 621q-13 13 -13 33t13 33.5t33 13.5t33 -13.5t13 -33.5t-13 -33t-33 -13t-33 13zM481 584q-13 13 -13 33t13 33t33 13t33 -13t13 -33t-13 -33t-33 -13t-33 13zM583 482q-13 13 -13 33t13 33t33 13t33 -13t13 -33t-13 -33t-33 -13t-33 13zM620 343q-13 13 -13 33
t13 33t33 13t33.5 -13t13.5 -33t-13.5 -33t-33.5 -13t-33 13zM583 204q-13 13 -13 33t13 33t33 13t33 -13t13 -33t-13 -33t-33 -13t-33 13zM481 102q-13 13 -13 33t13 33t33 13t33 -13t13 -33t-13 -33t-33 -13t-33 13zM342 64.5q-13 13.5 -13 33.5t13 33t33 13t33 -13
t13 -33t-13 -33.5t-33 -13.5t-33 13.5zM203 102q-13 13 -13 33t13 33t33 13t33 -13t13 -33t-13 -33t-33 -13t-33 13zM101 204q-13 13 -13 33t13 33t33 13t33 -13t13 -33t-13 -33t-33 -13t-33 13zM63.5 343q-13.5 13 -13.5 33t13.5 33t33.5 13t33 -13t13 -33t-13 -33t-33 -13
t-33.5 13zM101 482q-13 13 -13 33t13 33t33 13t33 -13t13 -33t-13 -33t-33 -13t-33 13zM203 584q-13 13 -13 33t13 33t33 13t33 -13t13 -33t-13 -33t-33 -13t-33 13z" />
    <glyph glyph-name="lozenge" unicode="&#x25ca;" horiz-adv-x="488" 
d="M208 639h72l158 -263l-158 -263h-72l-158 263zM122 376l122 -204l122 204l-122 204z" />
    <glyph glyph-name="filledbox" unicode="&#x25a0;" horiz-adv-x="812" 
d="M49 717h714v-714h-714v714z" />
    <glyph glyph-name="uni0308" unicode="&#x308;" 
d="M248 652q-16 16 -16 39t16 39.5t39 16.5t39 -16.5t16 -39.5t-16 -39t-39 -16t-39 16zM66 730.5q16 16.5 39 16.5t39 -16.5t16 -39.5t-16 -39t-39 -16t-39 16t-16 39t16 39.5z" />
    <glyph glyph-name="uni0307" unicode="&#x307;" 
d="M62 752h105v-102h-105v102z" />
    <glyph glyph-name="gravecomb" unicode="&#x300;" 
d="M50 727l54 52l119 -119l-53 -54z" />
    <glyph glyph-name="acutecomb" unicode="&#x301;" 
d="M50 660l120 119l53 -52l-120 -121z" />
    <glyph glyph-name="uni030B" unicode="&#x30b;" 
d="M199 659l118 117l52 -51l-118 -118zM167 776l52 -51l-117 -118l-52 52z" />
    <glyph glyph-name="uni030C.alt" 
d="M126 752v-102q0 -31 -16.5 -56.5t-59.5 -25.5v34q17 0 28 9.5t11 38.5h-39v102h76z" />
    <glyph glyph-name="uni0302" unicode="&#x302;" 
d="M76 639l150 95l98 -126l-75 11l-64 48l-75 -59z" />
    <glyph glyph-name="uni030C" unicode="&#x30c;" 
d="M169 694l75 58l75 -10l-109 -116l-99 126l35 -30z" />
    <glyph glyph-name="uni0306" unicode="&#x306;" 
d="M85.5 653q-37.5 37 -37.5 99h68q0 -33 18.5 -52.5t50.5 -19.5t51 19.5t19 52.5h69q0 -62 -38 -99t-101 -37q-62 0 -99.5 37z" />
    <glyph glyph-name="uni030A" unicode="&#x30a;" 
d="M83.5 652q-33.5 33 -33.5 84t33.5 84.5t83.5 33.5t83 -33.5t33 -84.5t-33 -84t-83 -33t-83.5 33zM124 689.5q17 -18.5 43 -18.5q25 0 42 18.5t17 46.5t-17 47t-42 19t-42.5 -19t-17.5 -47t17 -46.5z" />
    <glyph glyph-name="tildecomb" unicode="&#x303;" 
d="M274.5 660q-19.5 7 -44.5 21q-19 10 -31 15t-25 5q-21 0 -35.5 -11.5t-14.5 -34.5h-74q0 48 29.5 78.5t80.5 30.5q25 0 44 -7t43 -21q19 -11 31 -16t25 -5q21 0 32 10t11 36h73q0 -52 -27.5 -80t-73.5 -28q-24 0 -43.5 7z" />
    <glyph glyph-name="uni0304" unicode="&#x304;" 
d="M50 713h240v-67h-240v67z" />
    <glyph glyph-name="uni0312" unicode="&#x312;" 
d="M50 622v111q0 35 22 62t79 27v-38q-23 0 -39 -8t-16 -34h69v-120h-115z" />
    <glyph glyph-name="dotbelowcomb" unicode="&#x323;" 
d="M66 -170.5q-16 16.5 -16 39.5t16 39t39 16t39 -16t16 -39t-16 -39.5t-39 -16.5t-39 16.5z" />
    <glyph glyph-name="uni0326" unicode="&#x326;" 
d="M165 -84v-108q0 -34 -22.5 -60t-79.5 -26v38q56 0 56 42h-69v114h115z" />
    <glyph glyph-name="uni0326.loclMAH" 
d="M123 -184.5q15 8.5 15 33.5h-70l1 115h115v-109q0 -38 -24.5 -62.5t-77.5 -22.5v37q26 0 41 8.5z" />
    <glyph glyph-name="uni0327" unicode="&#x327;" 
d="M101 -158q25 0 37 8t12 22q0 35 -71 35l24 101h38l-7 -66q40 -5 60.5 -24t20.5 -49q0 -39 -31.5 -62t-84.5 -23q-21 0 -49 5l11 57q21 -4 40 -4z" />
    <glyph glyph-name="uni0328" unicode="&#x328;" 
d="M90 -206q-40 22 -40 78q0 51 35 89t98 57l15 -18q-41 -17 -65 -46t-24 -61q0 -27 19 -44.5t60 -17.5v-59q-58 0 -98 22z" />
    <glyph glyph-name="uni0335" unicode="&#x335;" 
d="M50 679h230v-53h-230v53z" />
    <glyph glyph-name="uni0337" unicode="&#x337;" 
d="M19 286l157 175h82l-155 -175h-84z" />
    <glyph glyph-name="uni0338" unicode="&#x338;" 
d="M590 494l-479 -513l-50 45l482 512z" />
    <glyph glyph-name="uni0335.case" 
d="M50 420h373v-73h-373v73z" />
    <glyph glyph-name="uni0336.case" 
d="M39 685h726v-61h-726v61z" />
    <glyph glyph-name="uni0337.case" 
d="M168 455h97l-146 -170h-96z" />
    <glyph glyph-name="uni0338.case" 
d="M727 771l-542 -870l-66 40l544 870z" />
    <glyph glyph-name="uni0307.ss06" 
d="M71 641.5q-20 20.5 -20 48.5q0 29 20 48.5t49 19.5q28 0 47.5 -20t19.5 -48t-19.5 -48.5t-47.5 -20.5q-29 0 -49 20.5z" />
    <glyph glyph-name="dieresis" unicode="&#xa8;" horiz-adv-x="375" 
d="M231.5 694q-16.5 16 -16.5 39t16.5 39t39.5 16t38.5 -16t15.5 -39t-16 -39t-38 -16q-23 0 -39.5 16zM66 772q16 16 39 16t39 -16t16 -39t-16 -39t-39 -16t-39 16t-16 39t16 39z" />
    <glyph glyph-name="dotaccent" unicode="&#x2d9;" horiz-adv-x="206" 
d="M48 752h105v-102h-105v102z" />
    <glyph glyph-name="grave" unicode="`" horiz-adv-x="273" 
d="M50 727l54 52l119 -119l-53 -54z" />
    <glyph glyph-name="acute" unicode="&#xb4;" horiz-adv-x="273" 
d="M50 660l120 119l53 -52l-120 -121z" />
    <glyph glyph-name="hungarumlaut" unicode="&#x2dd;" horiz-adv-x="419" 
d="M199 659l118 117l52 -51l-118 -118zM167 776l52 -51l-117 -118l-52 52z" />
    <glyph glyph-name="circumflex" unicode="&#x2c6;" horiz-adv-x="390" 
d="M50 639l145 144l145 -144l-44 -41l-101 101l-103 -102z" />
    <glyph glyph-name="uni02C9" unicode="&#x2c9;" horiz-adv-x="305" 
d="M50 732h205v-72h-205v72z" />
    <glyph glyph-name="caron" unicode="&#x2c7;" horiz-adv-x="390" 
d="M195 663l101 101l44 -42l-145 -144l-145 144l42 42z" />
    <glyph glyph-name="breve" unicode="&#x2d8;" horiz-adv-x="372" 
d="M85.5 653q-37.5 37 -37.5 99h68q0 -33 18.5 -52.5t50.5 -19.5t51 19.5t19 52.5h69q0 -62 -38 -99t-101 -37q-62 0 -99.5 37z" />
    <glyph glyph-name="ring" unicode="&#x2da;" horiz-adv-x="333" 
d="M83.5 652q-33.5 33 -33.5 84t33.5 84.5t83.5 33.5t83 -33.5t33 -84.5t-33 -84t-83 -33t-83.5 33zM124 689.5q17 -18.5 43 -18.5q25 0 42 18.5t17 46.5t-17 47t-42 19t-42.5 -19t-17.5 -47t17 -46.5z" />
    <glyph glyph-name="tilde" unicode="&#x2dc;" horiz-adv-x="469" 
d="M274.5 660q-19.5 7 -44.5 21q-19 10 -31 15t-25 5q-21 0 -35.5 -11.5t-14.5 -34.5h-74q0 48 29.5 78.5t80.5 30.5q25 0 44 -7t43 -21q19 -11 31 -16t25 -5q21 0 32 10t11 36h73q0 -52 -27.5 -80t-73.5 -28q-24 0 -43.5 7z" />
    <glyph glyph-name="macron" unicode="&#xaf;" horiz-adv-x="340" 
d="M50 713h240v-67h-240v67z" />
    <glyph glyph-name="cedilla" unicode="&#xb8;" horiz-adv-x="225" 
d="M94 -108q19 0 28 6.5t9 16.5q0 11 -13.5 19t-41.5 9l32 55h27l-14 -33q54 -11 54 -56q0 -28 -22.5 -44t-59.5 -16q-24 0 -43 5l9 43q23 -5 35 -5z" />
    <glyph glyph-name="ogonek" unicode="&#x2db;" horiz-adv-x="230" 
d="M90 -206q-40 22 -40 78q0 51 35 89t98 57l15 -18q-41 -17 -65 -46t-24 -61q0 -27 19 -44.5t60 -17.5v-59q-58 0 -98 22z" />
    <glyph glyph-name="dotaccent.ss06" horiz-adv-x="210" 
d="M71 641.5q-20 20.5 -20 48.5q0 29 20 48.5t49 19.5q28 0 47.5 -20t19.5 -48t-19.5 -48.5t-47.5 -20.5q-29 0 -49 20.5z" />
    <glyph glyph-name="uni02BC" unicode="&#x2bc;" horiz-adv-x="246" 
d="M154.5 808.5q24.5 -24.5 24.5 -62.5v-109h-115l-1 115h70q0 25 -15 33.5t-41 8.5v37q53 2 77.5 -22.5z" />
    <glyph glyph-name="_part.florin" horiz-adv-x="344" 
d="M183.5 -189.5q-44.5 -36.5 -107.5 -36.5q-30 0 -59 9v70q21 -7 46 -7q38 0 62.5 21.5t24.5 64.5v68l38 10l40 -10v-84q0 -69 -44.5 -105.5z" />
    <glyph glyph-name="_part.unequal" horiz-adv-x="693" 
d="M215 98l222 492l42 -19l-222 -493z" />
    </font>
</defs>
</svg>
